<?xml version="1.0" standalone="no"?>
<!DOCTYPE svg PUBLIC "-//W3C//DTD SVG 1.1//EN" "http://www.w3.org/Graphics/SVG/1.1/DTD/svg11.dtd" >
<svg xmlns="http://www.w3.org/2000/svg">
<metadata></metadata>
<defs>
<font id="latothin" horiz-adv-x="1187" >
<font-face units-per-em="2048" ascent="1649" descent="-399" />
<missing-glyph horiz-adv-x="572" />
<glyph unicode="&#xfb01;" horiz-adv-x="1065" d="M62 950v21h178v102q0 94 26.5 167.5t76 124t119 76.5t155.5 26q31 0 65 -5.5t57 -16.5l-3 -25q-2 -6 -7.5 -6t-18.5 2.5t-33.5 5.5t-49.5 3q-76 0 -137.5 -21.5t-105.5 -65.5t-67.5 -110t-23.5 -156v-101h581v-971h-54v930h-526v-930h-54v929l-158 6q-19 2 -20 15z" />
<glyph unicode="&#xfb02;" horiz-adv-x="1123" d="M62 950v21h178v73q0 92 26.5 169.5t77 133t124.5 86t169 30.5q67 0 130 -6t119 -8h46v-1449h-54v1412q-52 1 -116.5 5.5t-119.5 4.5q-83 0 -148 -26.5t-109.5 -75.5t-68 -119.5t-23.5 -156.5v-73h308v-41h-307v-930h-54v929l-158 6q-19 2 -20 15z" />
<glyph unicode="&#xfb03;" horiz-adv-x="1678" d="M62 950v21h178v133q0 86 21 150t59 106.5t91.5 63t116.5 20.5q30 0 62.5 -5t55.5 -17l-3 -23q-2 -8 -8 -8.5t-19 2t-33.5 6t-48.5 3.5q-52 0 -96.5 -16t-76.5 -52t-50 -92.5t-18 -138.5v-132h559v102q0 94 26.5 167.5t76 124t119.5 76.5t156 26q31 0 64 -5.5t57 -16.5 l-3 -25q-2 -6 -8 -6t-18.5 2.5t-32.5 5.5t-50 3q-76 0 -138 -21.5t-105.5 -65.5t-67.5 -110t-24 -156v-101h582v-971h-53v930h-528v-930h-53v930h-558v-930h-54v929l-158 6q-19 2 -20 15z" />
<glyph unicode="&#xfb04;" horiz-adv-x="1731" d="M59 950v21h178v133q0 86 21 150t59 106.5t91.5 63t116.5 20.5q31 0 63 -5t55 -17l-3 -23q-1 -8 -7 -8.5t-19.5 2t-33.5 6t-49 3.5q-52 0 -96 -16t-76 -52t-50.5 -92.5t-18.5 -138.5v-132h559v73q0 92 26.5 169.5t77.5 133t124.5 86t168.5 30.5q66 0 129.5 -6t118.5 -8h47 v-1449h-54v1412q-53 1 -116.5 5.5t-119.5 4.5q-83 0 -148 -26.5t-110 -75.5t-68.5 -119.5t-23.5 -156.5v-73h347v-41h-346v-930h-53v930h-558v-930h-54v929l-158 6q-19 2 -20 15z" />
<glyph horiz-adv-x="0" />
<glyph horiz-adv-x="0" />
<glyph unicode="&#xd;" horiz-adv-x="0" />
<glyph unicode=" "  horiz-adv-x="572" />
<glyph unicode="&#x09;" horiz-adv-x="572" />
<glyph unicode="&#xa0;" horiz-adv-x="572" />
<glyph unicode="!" horiz-adv-x="505" d="M173 60q0 33 22 56t55 23t56 -23t23 -56t-23 -54.5t-56 -21.5t-55 21.5t-22 54.5zM226 854v586h56v-586q0 -45 -0.5 -85t-1.5 -82t-3.5 -89t-4.5 -106h-36q-2 59 -4.5 106t-3.5 89t-1.5 82t-0.5 85z" />
<glyph unicode="&#x22;" horiz-adv-x="666" d="M173 964zM173 1140v300h46v-300l-5 -157q-2 -19 -18 -19t-19 19zM448 1140v300h46v-300l-5 -157q-2 -19 -18 -19t-19 19z" />
<glyph unicode="#" d="M97 488l1 16h233l93 432h-271l2 19q2 20 26 21h248l96 438q4 26 31 26h22l-103 -464h333l101 464h24q11 0 16 -8t1 -22l-96 -434h237l-4 -20q-2 -20 -26 -20h-212l-94 -432h255q24 0 20 -24l-1 -16h-280l-102 -464h-19q-11 0 -18 6.5t-3 21.5l95 436h-331l-96 -437 q-3 -14 -10.5 -20.5t-18.5 -6.5h-23l102 464h-207q-10 0 -16.5 5.5t-4.5 18.5zM377 504h332l94 432h-333z" />
<glyph unicode="$" d="M158 171l13 18q5 5 8.5 8t10.5 3t20 -12.5t32.5 -31t47.5 -40t66.5 -41t88 -32.5t112.5 -14l30 707q-69 22 -133.5 48t-115 66t-81.5 99t-31 147q0 69 26 132.5t75.5 113t121.5 79.5t166 32l9 185q0 23 19 23h21l-10 -208q102 -4 179 -39.5t145 -104.5l-11 -18 q-6 -10 -17 -10t-30 19t-53 42t-86.5 43t-128.5 23l-25 -632q73 -24 144 -49.5t126.5 -65t90.5 -99.5t35 -150q0 -87 -28.5 -163.5t-84 -134t-135.5 -91.5t-181 -38l-9 -236q0 -23 -20 -22h-20l10 257q-70 1 -126.5 14.5t-104.5 37.5t-88.5 58t-77.5 77zM276 1099 q0 -72 26 -121.5t69 -85t99.5 -59.5t118.5 -45l24 620q-83 -3 -146 -29t-105.5 -68t-64 -97.5t-21.5 -114.5zM596 29q89 4 159 34.5t119 81.5t74 116.5t25 140.5q0 78 -29.5 130.5t-78 88t-111.5 59t-129 44.5z" />
<glyph unicode="%" horiz-adv-x="1573" d="M110 1094q0 92 23 160t63 113t93 67t114 22q60 0 113.5 -22t93.5 -67t63 -113t23 -160q0 -91 -23.5 -159t-63.5 -112.5t-93 -66.5t-113 -22q-61 0 -114 22t-93 66.5t-63 112t-23 159.5zM154 1094q0 -85 20 -146t53.5 -100t79 -57.5t96.5 -18.5q50 0 96 18.5t79.5 57.5 t53.5 100t20 146t-20 146.5t-53.5 100.5t-79 58t-96.5 19t-96.5 -19t-79 -58t-53.5 -100.5t-20 -146.5zM241 0l1023 1427q5 6 10 9.5t14 3.5h36l-1023 -1428q-8 -12 -23 -12h-37zM877 343q0 92 23 160t62.5 112.5t93.5 67t114 22.5t113.5 -22.5t93.5 -67t63.5 -112.5 t23.5 -160q0 -91 -23.5 -158.5t-64 -112t-93.5 -66.5t-113 -22t-114 22t-93.5 66.5t-62.5 112t-23 158.5zM922 343q0 -85 20 -146t53.5 -100.5t78.5 -58t96 -18.5t97 18.5t79.5 58t53.5 100.5t20 146t-20 146.5t-53.5 101t-79 58.5t-97.5 19q-51 0 -96 -19t-78.5 -58.5 t-53.5 -101t-20 -146.5z" />
<glyph unicode="&#x26;" horiz-adv-x="1416" d="M120 359q0 76 27.5 144.5t76.5 125.5t115.5 100.5t142.5 70.5q-81 85 -120.5 162.5t-39.5 172.5q0 70 25.5 128.5t71.5 101.5t110.5 67t143.5 24q63 0 121 -22.5t102.5 -61t71 -88.5t27.5 -106l-25 -4q-7 -1 -14 3.5t-10 15.5q-3 28 -21 65.5t-51 72t-83.5 58.5 t-117.5 24t-122 -20.5t-94.5 -57.5t-61.5 -88t-22 -112q0 -91 47.5 -174t144.5 -177l475 -460q49 77 78.5 158t37.5 156q2 10 5.5 15t14.5 5h27q-2 -84 -35 -179.5t-95 -186.5l302 -292h-46q-13 0 -21.5 2t-19.5 13l-244 237q-44 -56 -98.5 -105.5t-120 -85t-141 -56.5 t-160.5 -21q-75 0 -147 24.5t-129.5 72t-92.5 117.5t-35 161zM174 362q0 -85 33.5 -147.5t85.5 -104t115 -62t122 -20.5q81 0 152 19.5t131 54t110 80.5t90 101l-483 468l-10 10l-10 10q-75 -27 -136.5 -69t-106 -95t-69 -115t-24.5 -130z" />
<glyph unicode="'" horiz-adv-x="391" d="M173 1140v300h46v-300l-5 -157q-2 -19 -18 -19t-19 19z" />
<glyph unicode="(" horiz-adv-x="519" d="M124 646q0 117 14.5 227t47.5 220t87 222t134 234l23 -14q5 -3 7 -9.5t-5 -18.5q-130 -200 -195 -413.5t-65 -447.5q0 -236 64.5 -448t195.5 -412q7 -11 5 -18t-7 -10l-23 -14q-80 121 -134 233.5t-87 222t-47.5 219.5t-14.5 227z" />
<glyph unicode=")" horiz-adv-x="519" d="M82 -232q-2 7 5 18q131 200 196 412t65 448q0 234 -65.5 448t-195.5 413q-7 11 -5 18t7 10l24 14q80 -122 133.5 -234t87 -222t47.5 -220t14 -227t-14 -227t-47.5 -219.5t-87 -222t-133.5 -233.5l-24 14q-5 3 -7 10z" />
<glyph unicode="*" horiz-adv-x="870" d="M167 1365l16 29l203 -117q12 -8 19.5 -15.5t22.5 -21.5q-6 18 -8 29t-2 25v228h33v-228q0 -14 -2 -25.5t-8 -29.5q13 15 21.5 22.5t21.5 15.5l201 117l16 -29l-200 -118q-13 -8 -23.5 -12t-28.5 -7q19 -4 28.5 -6.5t23.5 -10.5l202 -117l-16 -30l-203 118 q-13 7 -20.5 12.5t-22.5 22.5q5 -18 7.5 -28t2.5 -25v-228h-33v228q0 14 2 24t7 27q-12 -14 -20.5 -20t-20.5 -13l-201 -117l-16 29l201 117q12 7 22 9.5t28 7.5v1q-18 5 -28 7.5t-22 10.5z" />
<glyph unicode="+" d="M119 666v42h452v473h44v-473h455v-42h-455v-477h-44v477h-452z" />
<glyph unicode="," horiz-adv-x="440" d="M150 67q0 30 19.5 51t52.5 21q34 0 54.5 -24t20.5 -67q0 -82 -37 -160t-97 -138l-8 8q-5 5 -5 12q0 3 5 10q8 10 24.5 31t33 50t30.5 65.5t16 77.5q-16 -11 -41 -11q-30 0 -49 20.5t-19 53.5z" />
<glyph unicode="-" horiz-adv-x="756" d="M147 582v45h461v-45h-461z" />
<glyph unicode="&#xad;" horiz-adv-x="756" d="M147 582v45h461v-45h-461z" />
<glyph unicode="." horiz-adv-x="476" d="M161 60q0 33 22 56t55 23t55.5 -23t22.5 -56t-23 -54.5t-55 -21.5q-33 0 -55 21.5t-22 54.5z" />
<glyph unicode="/" horiz-adv-x="872" d="M84 -82l647 1540q11 23 35 23h22l-647 -1540q-5 -12 -15 -17.5t-22 -5.5h-20z" />
<glyph unicode="0" d="M82 720q0 188 40.5 327t110 230t162.5 135t199 44q105 0 198.5 -44t163 -135t110 -230t40.5 -327q0 -189 -40.5 -327.5t-110 -228.5t-163 -134t-198.5 -44t-198.5 44t-163 134t-110 228t-40.5 328zM136 720q0 -181 37 -311.5t99.5 -214t145.5 -123.5t176 -40q92 0 175 40 t145.5 123.5t99 214t36.5 311.5t-36.5 311.5t-99 215t-145.5 124.5t-175 40q-93 0 -176 -40t-145.5 -124.5t-99.5 -215t-37 -311.5z" />
<glyph unicode="1" d="M230 1081l410 366h39v-1405h331v-42h-726v42h342v1268q0 31 3 64l-350 -315q-8 -8 -17.5 -6.5t-15.5 8.5z" />
<glyph unicode="2" d="M130 0v19q0 8 3.5 15t8.5 12l508 514q62 63 116.5 123.5t95.5 122.5t64.5 127.5t23.5 140.5q0 88 -29.5 151.5t-78.5 105t-112 61t-131 19.5q-76 0 -139 -23t-111.5 -64.5t-79.5 -99.5t-44 -127q-7 -27 -30 -24l-26 3q12 89 48.5 159.5t93 119.5t130 75t160.5 26 q78 0 150.5 -22.5t129 -69t90.5 -118.5t34 -171q0 -82 -26 -152.5t-69.5 -135t-100.5 -126t-121 -124.5l-485 -497q27 5 58 7.5t66 2.5h695q19 0 19 -19v-31h-911z" />
<glyph unicode="3" d="M126 348l17 8q8 3 20.5 1.5t18.5 -18.5q3 -8 11 -34.5t23.5 -61t43.5 -72.5t72 -69.5t106 -52t148 -20.5q100 0 175.5 33t125.5 85.5t75 116t25 122.5q0 71 -24 132t-76.5 106t-136 70.5t-203.5 26.5v38q94 3 169 27.5t126.5 68t78.5 103t27 131.5q0 84 -28.5 145 t-76 100t-109.5 58t-130 19q-76 0 -139.5 -23t-112 -64.5t-80 -99.5t-44.5 -127q-4 -14 -10 -20t-18 -4l-26 3q12 89 48.5 159.5t93 119.5t130 75t160.5 26q78 0 149 -21.5t126 -66t87.5 -112.5t32.5 -161q0 -72 -24.5 -130.5t-66.5 -102.5t-97.5 -73.5t-117.5 -43.5 q84 -11 148.5 -41.5t108.5 -77t66 -107t22 -132.5q0 -83 -34 -156.5t-94.5 -128.5t-143.5 -86.5t-181 -31.5q-85 0 -149.5 16t-113 44t-81.5 64.5t-56 77t-37.5 82.5t-23.5 80z" />
<glyph unicode="4" d="M51 472l736 970h43v-967h288v-25q0 -17 -20 -18h-268v-432h-48v432h-701q-12 0 -17.5 4t-7.5 11zM112 475h670v839q0 25 3 54z" />
<glyph unicode="5" d="M163 99l15 21q6 10 20 10q10 0 34.5 -15.5t65 -33.5t97 -33t129.5 -15q89 0 167 28t136.5 83t92 135t33.5 185q0 84 -24.5 154t-74 121.5t-126.5 80t-181 28.5q-120 0 -277 -40l-36 12l110 620h630v-23q0 -11 -8 -18.5t-24 -7.5h-557l-96 -536q74 19 140 28t125 9 q112 0 197.5 -32t142 -88.5t86 -135t29.5 -172.5q0 -114 -39 -203t-106 -151t-155 -94t-187 -32q-57 0 -109.5 9.5t-98.5 26t-84.5 37.5t-66.5 42z" />
<glyph unicode="6" d="M155 449q0 80 43.5 185.5t142.5 242.5l408 549q9 13 28 14h46l-429 -573q-43 -58 -75.5 -106.5t-56.5 -94.5q60 86 157 134.5t212 48.5q96 0 175 -31.5t135 -87.5t87 -134.5t31 -172.5q0 -97 -34.5 -178t-96.5 -139t-147.5 -90t-187.5 -32q-97 0 -177.5 31t-138.5 90.5 t-90 146t-32 197.5zM207 429q0 -87 27 -160t77.5 -126.5t122 -83.5t159.5 -30q96 0 172.5 29t129.5 81t81.5 124t28.5 157q0 89 -28.5 160.5t-79 122t-120.5 77.5t-155 27q-98 0 -175.5 -34.5t-131 -88.5t-81 -121t-27.5 -134z" />
<glyph unicode="7" d="M138 1409v31h947v-25q0 -9 -2.5 -16.5t-5.5 -13.5l-693 -1363q-10 -22 -37 -22h-34l697 1362q5 8 9 15t9 14h-871q-18 0 -19 18z" />
<glyph unicode="8" d="M135 373q0 86 26 151t72 111t107 74.5t131 42.5q-68 16 -120.5 47.5t-89 76.5t-55 100t-18.5 119q0 75 28 141t80 115t127.5 77t170.5 28t170.5 -28t127.5 -77t79.5 -115.5t27.5 -140.5q0 -63 -18.5 -118.5t-54.5 -100.5t-89 -76.5t-120 -47.5q70 -13 130.5 -42t106 -75 t72.5 -111t27 -151q0 -90 -34 -162.5t-95 -122.5t-145 -77t-185 -27t-185 27t-145 77t-95 122.5t-34 162.5zM190 374q0 -79 30 -143.5t83 -109.5t127.5 -69.5t163.5 -24.5t163 24.5t127.5 69.5t83 109.5t29.5 143.5q0 70 -18 123.5t-49.5 93t-72.5 66t-85.5 42.5t-90.5 22.5 t-87 6.5t-87 -6.5t-90.5 -22.5t-85.5 -42.5t-72.5 -66t-50 -93.5t-18.5 -123zM241 1094q0 -62 21.5 -121t65.5 -103.5t110.5 -71t155.5 -26.5t155.5 26.5t110.5 71t65.5 103t21.5 121.5q0 69 -24 127t-69.5 101t-111 67t-148.5 24t-148.5 -24t-111 -67t-69.5 -101.5 t-24 -126.5z" />
<glyph unicode="9" d="M148 1034q0 91 34.5 168.5t94.5 134t142 88t178 31.5q91 0 168.5 -31.5t133.5 -90t88 -140.5t32 -182q0 -52 -12.5 -101t-35.5 -98.5t-56 -103.5t-76 -116l-392 -580q-9 -13 -27 -13h-48l420 605q39 57 71 104.5t56 93.5q-30 -42 -69 -75.5t-85.5 -56.5t-98.5 -35 t-106 -12q-92 0 -168.5 30t-130 84.5t-83.5 129.5t-30 166zM203 1036q0 -86 26.5 -154t74.5 -116t115.5 -73.5t149.5 -25.5q95 0 169 32.5t124.5 84.5t77.5 116t27 127q0 84 -28 154.5t-77.5 121.5t-117 79.5t-147.5 28.5q-87 0 -159.5 -27t-125 -77t-81 -119t-28.5 -152z M919 803q1 0 1 2q0 -2 -1 -2z" />
<glyph unicode=":" horiz-adv-x="482" d="M164 0zM164 60q0 33 22 56t55 23t55.5 -23t22.5 -56t-23 -54.5t-55 -21.5q-33 0 -55 21.5t-22 54.5zM164 902q0 33 22 56t55 23t55.5 -23t22.5 -56t-23 -54.5t-55 -21.5q-33 0 -55 21.5t-22 54.5z" />
<glyph unicode=";" horiz-adv-x="501" d="M174 0zM174 902q0 33 22 56t55 23t55.5 -23t22.5 -56t-23 -54.5t-55 -21.5q-33 0 -55 21.5t-22 54.5zM179 67q0 30 19.5 51t52.5 21q34 0 54.5 -24t20.5 -67q0 -82 -37 -160t-97 -138l-8 8q-5 5 -5 12q0 3 5 10q8 10 24.5 31t33 50t30.5 65.5t16 77.5q-16 -11 -41 -11 q-30 0 -49 20.5t-19 53.5z" />
<glyph unicode="&#x3c;" d="M185 675v23l756 387v-33q0 -15 -22 -28l-623 -314q-28 -15 -62 -24q33 -7 62 -22l623 -316q23 -11 22 -26v-34z" />
<glyph unicode="=" d="M178 517v42h831v-42h-831zM178 826v42h831v-42h-831z" />
<glyph unicode="&#x3e;" d="M247 288v34q0 15 22 26l623 316q14 7 29 12.5t31 9.5q-32 7 -60 24l-623 314q-23 12 -22 28v33l755 -387v-23z" />
<glyph unicode="?" horiz-adv-x="868" d="M103 1316q26 27 58.5 52t72 45t87 31.5t102.5 11.5q67 0 127.5 -20.5t107.5 -59t74.5 -93.5t27.5 -125q0 -58 -14.5 -104t-38 -83t-53.5 -67t-62 -55t-62.5 -46.5t-55 -43.5t-40 -44.5t-16.5 -49.5l-8 -173h-36l-3 177q-1 41 23.5 72.5t62.5 61.5t81.5 61.5t81 72 t63 93.5t25.5 126q0 60 -24.5 108t-64 80.5t-91.5 50t-108 17.5q-71 0 -122.5 -19.5t-87 -43t-55 -43t-24.5 -19.5q-9 0 -14 7zM314 60q0 33 22 56t55 23t56 -23t23 -56t-23 -54.5t-56 -21.5t-55 21.5t-22 54.5z" />
<glyph unicode="@" horiz-adv-x="1688" d="M131 552q0 115 27 218.5t77 192.5t119 160t153 120.5t179.5 77t199.5 27.5q89 0 175 -18.5t162 -55t140 -91.5t110.5 -128t72.5 -164.5t26 -201.5q0 -112 -29.5 -203.5t-79 -156.5t-116.5 -100t-143 -35q-98 0 -139.5 56t-36.5 152q-55 -106 -129.5 -154t-162.5 -48 q-55 0 -95.5 19t-67 52t-39.5 78t-13 97q0 87 33.5 174.5t96.5 157t153.5 113t205.5 43.5q47 0 92 -8t79 -25l-91 -349q-27 -102 -25.5 -165t21.5 -97.5t54 -46.5t70 -12q62 0 120.5 32t102.5 91.5t70 144t26 190.5q0 158 -52.5 274.5t-140.5 193.5t-204.5 114.5 t-245.5 37.5q-94 0 -184 -25.5t-168.5 -72t-144.5 -114t-113.5 -151.5t-74 -183t-26.5 -211q0 -184 59.5 -325t161 -236t236.5 -144t287 -49q297 0 517 145q9 6 16 4t10 -10l11 -22q-116 -77 -253.5 -117.5t-300.5 -40.5q-164 0 -307.5 52.5t-250.5 153t-168.5 248.5 t-61.5 341zM568 446q0 -43 11 -80.5t33.5 -66t55.5 -44.5t78 -16q40 0 82.5 13t82.5 48.5t74.5 96.5t58.5 155l85 327q-29 8 -57 12t-67 4q-100 0 -181.5 -40.5t-138 -104.5t-87 -144t-30.5 -160z" />
<glyph unicode="A" horiz-adv-x="1319" d="M37 0l596 1440h54l596 -1440h-44q-15 0 -22 17l-188 456h-739l-188 -456q-5 -17 -23 -17h-42zM308 516h703l-330 802q-5 14 -10.5 28.5t-11.5 31.5q-5 -17 -10.5 -31.5t-10.5 -28.5z" />
<glyph unicode="B" horiz-adv-x="1278" d="M228 0v1440h390q236 0 350.5 -94.5t114.5 -267.5q0 -60 -22.5 -116.5t-63.5 -102.5t-98.5 -78.5t-129.5 -45.5q89 -9 159 -37t119 -72.5t74.5 -105.5t25.5 -136q0 -92 -32 -163t-92.5 -120.5t-149 -75t-200.5 -25.5h-445zM285 46h388q202 0 310 86.5t108 252.5 q0 75 -29.5 134.5t-83 101.5t-131 64.5t-173.5 22.5h-389v-662zM285 751h341q109 0 185 29t124.5 75.5t70.5 104.5t22 114q0 155 -101 238t-309 83h-333v-644z" />
<glyph unicode="C" horiz-adv-x="1392" d="M131 720q0 165 50 300.5t142 232.5t219.5 150t280.5 53q144 0 256 -44t208 -127l-15 -22q-4 -7 -17 -8q-6 0 -20.5 11.5t-39 28.5t-58.5 37t-80 36.5t-104.5 28t-129.5 11.5q-139 0 -255.5 -48t-200.5 -137t-131 -216.5t-47 -286.5q0 -162 47 -289.5t130 -216 t195.5 -135.5t244.5 -47q83 0 148.5 11t120 33.5t101.5 55.5t93 75q7 7 13 7q4 0 11 -5l22 -23q-45 -45 -97.5 -82t-115 -64t-136.5 -41.5t-163 -14.5q-146 0 -269.5 51.5t-213 147.5t-139.5 232t-50 305z" />
<glyph unicode="D" horiz-adv-x="1555" d="M228 0v1440h520q150 0 273.5 -49.5t212.5 -142t138 -226t49 -302.5t-49 -302.5t-138 -226.5t-213 -142t-273 -49h-520zM285 46h463q136 0 249 45t194.5 131t126 211.5t44.5 286.5t-44.5 286.5t-126 211.5t-194.5 131t-249 45h-463v-1348z" />
<glyph unicode="E" horiz-adv-x="1190" d="M228 0v1440h850v-48h-793v-638h668v-47h-668v-659h795l-2 -48h-850z" />
<glyph unicode="F" horiz-adv-x="1155" d="M228 0v1440h850v-48h-793v-660h691v-48h-691v-684h-57z" />
<glyph unicode="G" horiz-adv-x="1511" d="M132 720q0 169 49.5 304.5t143 232t225.5 148t297 51.5q81 0 149 -10t126.5 -31t110 -53t99.5 -74l-14 -21q-8 -12 -24 -9q-10 3 -37 27t-79.5 51t-133.5 49.5t-198 22.5q-151 0 -272 -47t-206.5 -136t-132 -216.5t-46.5 -288.5q0 -160 46.5 -288t133 -217.5t210.5 -137 t281 -47.5q71 0 132 9t115 26.5t105.5 42t103.5 56.5v424h-304q-7 0 -12.5 5t-5.5 11v29h374v-492q-106 -73 -229 -115t-278 -42q-169 0 -304 51.5t-230 147.5t-145 232t-50 305z" />
<glyph unicode="H" horiz-adv-x="1538" d="M228 0v1440h57v-687h967v687h58v-1440h-58v708h-967v-708h-57z" />
<glyph unicode="I" horiz-adv-x="513" d="M228 0v1440h57v-1440h-57z" />
<glyph unicode="J" horiz-adv-x="840" d="M28 14l4 27q2 5 4.5 10t13.5 5q9 0 22.5 -4t32 -8.5t43 -8.5t58.5 -4q84 0 151.5 27t114.5 82t72.5 137t25.5 193v970h58v-969q0 -121 -30 -212t-84.5 -152.5t-132 -92t-171.5 -30.5q-87 0 -182 30z" />
<glyph unicode="K" horiz-adv-x="1270" d="M228 0v1440h57v-683h92q19 0 33 1t25.5 5t21.5 11t21 19l635 625q12 12 23 17t25 5h41l-671 -661q-18 -17 -31 -26.5t-31 -14.5q19 -5 33.5 -14t29.5 -27l711 -697h-41q-19 0 -28.5 4.5t-17.5 14.5l-668 651q-11 11 -20 18.5t-20.5 13t-27.5 8t-40 2.5h-95v-712h-57z" />
<glyph unicode="L" horiz-adv-x="1029" d="M228 0v1440h57v-1391h713v-49h-770z" />
<glyph unicode="M" horiz-adv-x="1839" d="M228 0v1440h34q8 0 14 -2.5t11 -11.5l624 -1060l18 -38q4 9 8 18.5t9 20.5l606 1059q5 8 11 11t14 3h34v-1440h-49v1317v15t1 17l-605 -1059q-10 -17 -24 -18h-10q-15 0 -26 18l-623 1061q1 -8 2 -17t1 -17v-1317h-50z" />
<glyph unicode="N" horiz-adv-x="1538" d="M228 0v1440h26q8 0 13 -2.5t12 -11.5l983 -1330q-1 9 -1 18.5v17.5v1308h49v-1440h-24q-13 0 -22 12l-989 1336q1 -10 2 -19.5t1 -17.5v-1311h-50z" />
<glyph unicode="O" horiz-adv-x="1611" d="M132 720q0 168 49 304t138.5 232t213 148t272.5 52q151 0 274.5 -51.5t212.5 -147.5t138.5 -232t49.5 -305t-49.5 -304.5t-138.5 -231.5t-213 -147t-274 -51q-148 0 -272 51t-213.5 147t-138.5 231.5t-49 304.5zM189 720q0 -161 46 -288.5t127 -215.5t194.5 -135 t248.5 -47q137 0 250 47t194.5 135t126 215.5t44.5 288.5t-44.5 288.5t-126 216.5t-194.5 136t-250 47q-135 0 -248.5 -47t-194.5 -136t-127 -216.5t-46 -288.5z" />
<glyph unicode="P" horiz-adv-x="1160" d="M228 0v1440h344q244 0 370.5 -104.5t126.5 -313.5q0 -91 -35.5 -168.5t-101 -133t-157 -87t-203.5 -31.5h-287v-602h-57zM285 648h287q101 0 183 29t138.5 79t87.5 118.5t31 147.5q0 182 -109.5 277.5t-330.5 95.5h-287v-747z" />
<glyph unicode="Q" horiz-adv-x="1611" d="M132 720q0 168 49 304t138.5 232t213 148t272.5 52q151 0 274.5 -51.5t212.5 -147.5t138.5 -232t49.5 -305q0 -114 -22.5 -212t-64.5 -180t-102 -145.5t-136 -107.5l379 -403h-48q-25 0 -39 15l-339 362q-135 -63 -303 -63q-148 0 -272 51t-213.5 147t-138.5 231.5 t-49 304.5zM189 720q0 -161 46 -288.5t127 -215.5t194.5 -135t248.5 -47q137 0 250 47t194.5 135t126 215.5t44.5 288.5t-44.5 288.5t-126 216.5t-194.5 136t-250 47q-135 0 -248.5 -47t-194.5 -136t-127 -216.5t-46 -288.5z" />
<glyph unicode="R" horiz-adv-x="1222" d="M228 0v1440h347q234 0 356.5 -91.5t122.5 -276.5q0 -85 -32 -154.5t-89 -120.5t-139 -80.5t-182 -35.5q18 -10 36 -31l536 -650h-46q-11 0 -20 3t-17 14l-508 622q-8 11 -17 18.5t-19.5 12t-25.5 6.5t-36 2h-210v-678h-57zM285 721h274q101 0 182.5 24t138.5 69.5t87 110 t30 145.5q0 167 -108.5 246t-313.5 79h-290v-674z" />
<glyph unicode="S" horiz-adv-x="1088" d="M104 171l14 20q5 5 8.5 8t10.5 3t20 -13t33.5 -32t49 -41t68 -41t91.5 -31.5t117 -12.5q93 0 167 29t124.5 79.5t77 118.5t26.5 144q0 82 -31.5 135.5t-83.5 89.5t-118.5 60t-135.5 46t-135.5 48t-118 66.5t-83.5 100.5t-32 150q0 71 26.5 135t77.5 114t125 79.5 t170 29.5q109 0 192.5 -35t156.5 -108l-13 -23q-6 -10 -17 -10t-31 20t-56 44.5t-92.5 44.5t-139.5 20q-84 0 -149 -25t-109 -68t-66.5 -99t-22.5 -117q0 -79 32 -132t84 -88.5t118 -60t136 -47.5t136 -49.5t118 -66.5t84 -98.5t32 -145.5q0 -89 -30.5 -167.5t-88.5 -136.5 t-141 -91t-190 -33q-73 0 -131.5 12.5t-108.5 36.5t-91.5 59t-79.5 79z" />
<glyph unicode="T" horiz-adv-x="1173" d="M30 1391v49h1114v-49h-528v-1391h-56v1391h-530z" />
<glyph unicode="U" horiz-adv-x="1480" d="M210 541v899h56v-897q0 -106 32.5 -199.5t93.5 -162.5t148.5 -108.5t199.5 -39.5t199.5 39.5t148.5 108t93 161t32 199.5v899h58v-899q0 -117 -37 -219t-106 -177.5t-167 -119t-221 -43.5t-221 43.5t-166.5 119t-105.5 177.5t-37 219z" />
<glyph unicode="V" horiz-adv-x="1319" d="M37 1440h44q17 0 22 -18l535 -1289q6 -16 11.5 -33t10.5 -34q9 35 22 67l533 1289q5 17 25 18h43l-598 -1440h-50z" />
<glyph unicode="W" horiz-adv-x="2063" d="M57 1440h46q17 0 23 -18l397 -1279q9 -34 18 -72q4 19 8.5 37.5t9.5 34.5l443 1279q5 17 25 18h13q17 0 23 -18l443 -1279q10 -32 19 -72q4 20 8 38t9 34l397 1279q5 17 25 18h42l-456 -1440h-50l-457 1329q-7 17 -12 41q-2 -11 -4.5 -21.5t-5.5 -19.5l-459 -1329h-49z " />
<glyph unicode="X" horiz-adv-x="1248" d="M52 0l533 737l-509 703h55q10 0 15 -6t10 -11l470 -658q2 8 11 22l458 635q4 6 9.5 12t13.5 6h53l-507 -699l531 -741h-55q-10 0 -15.5 6.5t-10.5 11.5l-490 693q-2 -5 -4.5 -10t-6.5 -10l-483 -673q-6 -6 -11.5 -12t-14.5 -6h-52z" />
<glyph unicode="Y" d="M31 1440h48q9 0 14 -3.5t10 -12.5l456 -714q10 -17 19 -34t16 -33q7 17 15.5 33t19.5 34l455 714q8 15 24 16h49l-534 -835v-605h-58v605z" />
<glyph unicode="Z" horiz-adv-x="1219" d="M79 0v17q0 8 2 14t7 12l968 1349h-956v48h1033v-17q0 -13 -11 -29l-966 -1346h972v-48h-1049z" />
<glyph unicode="[" horiz-adv-x="598" d="M218 -257v1801h298v-18q0 -19 -20 -20h-231v-1725h231q20 0 20 -20v-18h-298z" />
<glyph unicode="\" horiz-adv-x="872" d="M84 1481h22q25 0 34 -23l648 -1540h-20q-11 0 -21.5 5t-15.5 18z" />
<glyph unicode="]" horiz-adv-x="598" d="M82 -239q0 19 20 20h232v1725h-232q-20 0 -20 20v18h298v-1801h-298v18z" />
<glyph unicode="^" d="M199 742l379 698h31l380 -698h-36q-8 0 -15 5.5t-11 13.5l-311 573q-14 25 -22 52q-5 -13 -10 -25.5t-13 -26.5l-309 -573q-3 -6 -9 -12.5t-16 -6.5h-38z" />
<glyph unicode="_" horiz-adv-x="913" d="M53 -231h807v-41h-807v41z" />
<glyph unicode="`" horiz-adv-x="819" d="M231 1456h55q20 0 30 -5.5t20 -20.5l165 -243h-31q-16 0 -26 12z" />
<glyph unicode="a" horiz-adv-x="977" d="M97 240q0 67 38.5 121t119.5 93.5t205 62.5t295 27v120q0 152 -65.5 235.5t-194.5 83.5q-77 0 -132.5 -22t-92.5 -49t-59 -49t-33 -22q-10 0 -18 11l-9 14q76 78 158.5 119t189.5 41q79 0 137 -25t96.5 -72t57 -114t18.5 -151v-664h-18q-20 0 -24 22l-10 148 q-42 -43 -84.5 -77.5t-89 -58.5t-101 -37t-120.5 -13q-48 0 -95 14t-85 45t-61 79.5t-23 117.5zM150 242q0 -56 18.5 -97.5t50 -68.5t71.5 -39.5t82 -12.5q66 0 120 14.5t100 40t86 60t77 73.5v293q-309 -10 -457 -77t-148 -186z" />
<glyph unicode="b" horiz-adv-x="1119" d="M180 0v1481h54v-666q33 48 72.5 87t86 66.5t101 42.5t116.5 15q92 0 165 -32.5t123 -95.5t76 -155t26 -209q0 -123 -28.5 -224t-85 -172t-138 -110.5t-188.5 -39.5q-218 0 -328 172l-5 -142q-1 -7 -4.5 -12.5t-13.5 -5.5h-29zM234 209q62 -98 140.5 -138.5t176.5 -40.5 q100 0 174.5 36t123 101.5t72.5 158t24 204.5q0 224 -90.5 338.5t-255.5 114.5q-120 0 -209.5 -59t-155.5 -161v-554z" />
<glyph unicode="c" horiz-adv-x="959" d="M118 505q0 117 30 213t87.5 164t140.5 106t189 38q94 0 168 -30t127 -80l-13 -17q-3 -3 -6 -5.5t-8 -2.5q-8 0 -25.5 14.5t-48.5 31.5t-78 31.5t-114 14.5q-94 0 -167 -33.5t-124 -95.5t-77.5 -150.5t-26.5 -198.5q0 -114 27 -202.5t77 -149t120 -92t156 -31.5 q78 0 130.5 18t87.5 40t53.5 39.5t26.5 17.5t13 -6l13 -15q-18 -26 -50.5 -50.5t-75 -43.5t-94.5 -30.5t-110 -11.5q-97 0 -176 34.5t-135 101t-86.5 163t-30.5 218.5z" />
<glyph unicode="d" horiz-adv-x="1119" d="M119 503q0 111 28 206t84 165.5t138.5 111t190.5 40.5q211 0 325 -166v621h54v-1481h-25q-20 0 -21 20l-7 181q-68 -99 -161.5 -156t-206.5 -57q-193 0 -296 127t-103 388zM174 503q0 -241 90.5 -356.5t264.5 -115.5q106 0 197 58t159 161v555q-63 98 -140 138.5 t-177 40.5q-99 0 -172.5 -36.5t-123 -101t-74 -152.5t-24.5 -191z" />
<glyph unicode="e" horiz-adv-x="1060" d="M118 525q0 111 30 202.5t87.5 158t140.5 103.5t188 37q82 0 153 -28.5t124.5 -84.5t83.5 -138t30 -187q0 -22 -18 -22h-765q-1 -10 -1 -20v-21q0 -121 28.5 -213t81 -154.5t126.5 -94.5t165 -32q81 0 140.5 18t99.5 39.5t62 39t28 17.5q8 0 13 -6l14 -15 q-20 -26 -57 -50.5t-85 -43.5t-103.5 -30.5t-114.5 -11.5q-103 0 -186.5 36t-142.5 105t-90.5 168.5t-31.5 227.5zM175 602h731q0 91 -26 162.5t-71.5 120.5t-108 74.5t-135.5 25.5q-86 0 -154 -27.5t-117 -78t-79.5 -121t-39.5 -156.5z" />
<glyph unicode="f" horiz-adv-x="687" d="M59 950v21h178v144q0 86 21 150t59 106.5t91.5 63t116.5 20.5q31 0 63 -5t55 -16l-3 -24q-1 -8 -7 -8.5t-19.5 2t-33.5 6t-49 3.5q-52 0 -96 -16t-76 -51.5t-50.5 -92.5t-18.5 -139v-143h346v-41h-345v-930h-54v929l-158 6q-19 2 -20 15z" />
<glyph unicode="g" horiz-adv-x="1035" d="M87 -112q0 83 56.5 144t152.5 94q-55 15 -88 47.5t-33 90.5q0 20 9 43.5t24.5 45.5t38 42.5t51.5 35.5q-71 41 -109.5 110.5t-38.5 163.5q0 72 24.5 130.5t70 101t110 66t144.5 23.5q67 0 122.5 -17t98.5 -46h252v-17q0 -8 -6.5 -13t-15.5 -6l-181 -7q38 -42 58.5 -96.5 t20.5 -118.5q0 -73 -25 -132.5t-70.5 -102t-110 -65.5t-143.5 -23q-49 0 -91 8.5t-79 25.5q-48 -28 -77.5 -67.5t-29.5 -75.5q0 -48 32 -73.5t83 -37.5t117 -16t135 -7t135.5 -11t117.5 -29.5t82.5 -61.5t31.5 -107q0 -61 -31 -118t-89.5 -100t-141 -69t-183.5 -26 q-103 0 -182.5 21.5t-133.5 59t-81 86.5t-27 104zM136 -108q0 -49 25.5 -92t74.5 -74t118.5 -49.5t157.5 -18.5q80 0 151.5 19.5t126 55t86 84.5t31.5 107q0 53 -27 85.5t-71.5 50.5t-103 25t-121.5 10.5t-126 6.5t-117 14q-45 -16 -82.5 -38.5t-64.5 -50t-42.5 -61.5 t-15.5 -74zM201 703q0 -63 20.5 -114.5t58.5 -89t93.5 -58t125.5 -20.5q71 0 126.5 20.5t94 58t58.5 89t20 114.5q0 62 -20.5 114.5t-59 89.5t-94.5 57.5t-125 20.5q-70 0 -125.5 -20.5t-93.5 -57.5t-58.5 -89t-20.5 -115z" />
<glyph unicode="h" horiz-adv-x="1118" d="M180 0v1481h54v-664q71 95 168.5 152t211.5 57q84 0 147 -26t104.5 -74.5t62.5 -119.5t21 -160v-646h-54v646q0 79 -17.5 141.5t-54 106t-90.5 66.5t-128 23q-111 0 -205 -58t-166 -160v-765h-54z" />
<glyph unicode="i" horiz-adv-x="438" d="M148 1374q0 29 21 50t50 21q13 0 26 -5.5t23 -15.5t16 -23t6 -27t-6 -26.5t-16 -22t-23 -15t-26 -5.5q-29 0 -50 21t-21 48zM193 0v1010h53v-1010h-53z" />
<glyph unicode="j" horiz-adv-x="438" d="M-63 -359l5 25q3 8 8 8.5t14 -2.5t23 -7t35 -4q85 0 128 49t43 132v1168h53v-1168q0 -48 -14.5 -89t-42.5 -70.5t-68.5 -46.5t-92.5 -17q-29 0 -50 5.5t-41 16.5zM147 1374q0 29 21 50t50 21q13 0 26 -5.5t22.5 -15.5t16 -23t6.5 -27t-6.5 -26.5t-16 -22t-22.5 -15 t-26 -5.5q-29 0 -50 21t-21 48z" />
<glyph unicode="k" horiz-adv-x="941" d="M180 0v1481h54v-919h48q11 0 23 3t28 18l449 406q9 10 19 15.5t25 5.5h45l-484 -438q-8 -8 -15.5 -13.5t-16.5 -10.5q14 -5 25.5 -14t21.5 -19l508 -515h-46q-10 0 -18.5 3t-17.5 13l-474 479q-17 17 -31.5 23t-44.5 6h-44v-524h-54z" />
<glyph unicode="l" horiz-adv-x="436" d="M191 0v1481h54v-1481h-54z" />
<glyph unicode="m" horiz-adv-x="1629" d="M180 0v1010h26q19 0 20 -21l6 -170q59 94 140 150.5t178 56.5q116 0 183.5 -69.5t87.5 -195.5q15 68 47.5 117.5t75.5 82.5t94.5 49t105.5 16q73 0 131.5 -25t99.5 -73t63 -119t22 -163v-646h-54v646q0 164 -70 250.5t-200 86.5q-57 0 -110 -21t-93.5 -63.5t-65 -105.5 t-24.5 -147v-646h-55v646q0 161 -63 249t-186 88q-92 0 -169 -57.5t-136 -157.5v-768h-54z" />
<glyph unicode="n" horiz-adv-x="1118" d="M180 0v1010h26q19 0 20 -21l6 -175q71 97 168.5 154.5t213.5 57.5q84 0 147 -26t104.5 -74.5t62.5 -119.5t21 -160v-646h-54v646q0 79 -17.5 141.5t-54 106t-90.5 66.5t-128 23q-111 0 -205 -58t-166 -160v-765h-54z" />
<glyph unicode="o" horiz-adv-x="1133" d="M118 505q0 118 29.5 214t87 164t140.5 105.5t191 37.5t191.5 -37.5t140.5 -105.5t87 -164t30 -214t-30 -213.5t-87 -163.5t-140.5 -104t-191.5 -36t-191 36t-140.5 104t-87 163.5t-29.5 213.5zM172 505q0 -108 24.5 -195t74.5 -149.5t123.5 -96t171.5 -33.5t172 33.5 t123.5 96t74.5 149.5t25 195t-25 195.5t-74.5 150.5t-123 97.5t-172.5 34.5q-98 0 -171.5 -34.5t-123.5 -97.5t-74.5 -151t-24.5 -195z" />
<glyph unicode="p" horiz-adv-x="1119" d="M180 -366v1376h26q19 0 20 -21l6 -176q68 98 161.5 155.5t207.5 57.5q191 0 295 -127t104 -388q0 -111 -28 -206t-83.5 -165.5t-138 -111t-191.5 -40.5q-213 0 -325 167v-521h-54zM234 209q62 -98 139.5 -138.5t177.5 -40.5q99 0 173 36t123 100.5t73.5 153t24.5 191.5 q0 241 -91 356.5t-264 115.5q-106 0 -197 -59t-159 -161v-554z" />
<glyph unicode="q" horiz-adv-x="1117" d="M119 503q0 111 28 206t84 165.5t138.5 111t190.5 40.5q109 0 189 -42t138 -127l6 132q1 20 21 21h25v-1376h-54v564q-68 -97 -161.5 -153.5t-205.5 -56.5q-193 0 -296 127t-103 388zM174 503q0 -241 90.5 -356.5t264.5 -115.5q106 0 197 58t159 161v556 q-59 95 -138 136.5t-179 41.5q-99 0 -172.5 -36.5t-123 -101t-74 -152.5t-24.5 -191z" />
<glyph unicode="r" horiz-adv-x="711" d="M180 0v1010h25q20 0 21 -23l6 -249q44 137 123.5 212.5t208.5 75.5q30 0 61 -4.5t56 -19.5l-6 -31q-4 -11 -15 -12q-11 0 -34 8t-68 8q-65 0 -114 -20t-88 -59.5t-68 -98t-54 -135.5v-662h-54z" />
<glyph unicode="s" horiz-adv-x="862" d="M102 105l14 18q4 5 7.5 7.5t11.5 2.5q10 0 29 -17t51.5 -37.5t81.5 -37t121 -16.5q71 0 124.5 20t90 54.5t55 81t18.5 99.5q0 55 -25.5 92t-66.5 62t-93 42.5t-106.5 33.5t-106.5 35t-93 47.5t-66 69t-25 102.5q0 51 23 98.5t65 84t101 58t131 21.5q88 0 156 -24.5 t128 -77.5l-11 -18q-5 -9 -16 -9q-9 0 -26 14t-46.5 29.5t-74 29.5t-110.5 14q-60 0 -109.5 -18t-85.5 -47.5t-55.5 -69.5t-19.5 -83q0 -51 25 -86t66 -59t93.5 -41t106.5 -34t106.5 -36.5t93.5 -48t66 -70.5t25 -103q0 -63 -22.5 -118.5t-66 -97t-106.5 -65t-144 -23.5 q-54 0 -98.5 8.5t-82 24.5t-70.5 38.5t-64 49.5z" />
<glyph unicode="t" horiz-adv-x="684" d="M60 945v19l178 7l15 389q1 6 5 11.5t11 5.5h23v-406h334v-41h-334v-726q0 -47 12 -80.5t32.5 -55t49 -31t60.5 -9.5q40 0 70.5 12t52 26.5t34.5 26.5t20 12q5 0 11 -6l13 -19q-17 -22 -40 -39t-51 -30t-57.5 -20t-60.5 -7q-94 0 -147 51.5t-53 166.5v728h-158 q-19 0 -20 15z" />
<glyph unicode="u" horiz-adv-x="1116" d="M169 364v646h54v-646q0 -79 17.5 -141.5t54 -106t91 -66.5t128.5 -23q110 0 203.5 57.5t167.5 160.5v765h53v-1010h-25q-18 0 -21 20l-5 176q-72 -97 -169 -154.5t-214 -57.5q-84 0 -147 26t-104.5 74.5t-62.5 119t-21 160.5z" />
<glyph unicode="v" horiz-adv-x="1011" d="M49 1010h40q10 0 16.5 -6.5t8.5 -12.5l374 -873q5 -14 10 -28.5t8 -29.5q4 14 8 28.5t10 29.5l375 873q4 8 10 13.5t16 5.5h38l-435 -1010h-45z" />
<glyph unicode="w" horiz-adv-x="1544" d="M60 1010h38q11 0 17.5 -6.5t8.5 -12.5l288 -873q5 -16 8 -31.5t6 -31.5q4 15 9 30.5t10 32.5l301 882q5 14 18 15h19q13 0 19 -15l298 -882q5 -16 9.5 -31.5t7.5 -31.5l8 30t10 33l287 873q3 8 10 13.5t15 5.5h37l-342 -1010h-36q-11 0 -16 14l-305 892q-8 23 -12 41 q-4 -18 -12 -41l-308 -892q-5 -14 -16 -14h-34z" />
<glyph unicode="x" horiz-adv-x="929" d="M55 0l373 515l-358 495h51q10 0 14.5 -6t8.5 -11l323 -453q2 10 12 24l308 428q4 6 10 12t14 6h49l-358 -491l372 -519h-51q-10 0 -15 6.5t-9 11.5l-335 472q-3 -11 -11 -22l-324 -450q-5 -6 -10.5 -12t-15.5 -6h-48z" />
<glyph unicode="y" horiz-adv-x="1012" d="M50 1010h41q11 0 18 -6.5t9 -12.5l377 -864q8 -22 15 -47q7 22 17 47l375 864q4 8 11 13.5t15 5.5h38l-589 -1349q-5 -10 -12.5 -18.5t-20.5 -8.5h-36l174 391z" />
<glyph unicode="z" horiz-adv-x="899" d="M71 0v19q0 6 2.5 11.5t7.5 12.5l678 924h-654v43h720v-23q0 -6 -2.5 -11t-7.5 -11l-677 -922h659v-43h-726z" />
<glyph unicode="{" horiz-adv-x="598" d="M91 626v37q37 0 68 11.5t54 32.5t35.5 50t12.5 64q0 58 -10 113t-23 110t-23 110t-10 115q0 58 18 108t52.5 87.5t82.5 58.5t109 21h57v-21q0 -8 -5 -12.5t-12 -4.5h-41q-46 0 -85 -16.5t-68 -47.5t-44.5 -74.5t-15.5 -96.5q0 -58 10 -114.5t22.5 -112t22.5 -111 t10 -112.5q0 -39 -13 -69.5t-34.5 -52.5t-49 -36t-54.5 -19q28 -5 55 -19.5t48.5 -37t34.5 -53t13 -68.5q0 -56 -10 -112t-22.5 -111.5t-22.5 -111.5t-10 -115q0 -54 15.5 -97.5t44.5 -74t68 -47t85 -16.5h41q7 0 12 -4t5 -11v-23h-57q-60 0 -108.5 21t-83 58.5t-52.5 87.5 t-18 108q0 59 10 114.5t23 110t23 110t10 113.5q0 35 -12.5 64t-35.5 50.5t-54 33.5t-68 12z" />
<glyph unicode="|" horiz-adv-x="475" d="M216 -368v1912h43v-1912h-43z" />
<glyph unicode="}" horiz-adv-x="598" d="M84 -234q0 7 5 11t12 4h41q46 0 85 16.5t68 47t44.5 74t15.5 97.5q0 58 -10 114.5t-22.5 112t-22.5 111.5t-10 112q0 38 13 68.5t34.5 53t49 37t54.5 19.5q-28 5 -55 19t-48.5 36t-34.5 52.5t-13 69.5q0 56 10 112t22.5 111.5t22.5 111.5t10 115q0 53 -15.5 96.5 t-44.5 74.5t-68 47.5t-85 16.5h-41q-7 0 -12 4t-5 13v21h57q59 0 108 -21t83.5 -58.5t52.5 -87.5t18 -108q0 -59 -10 -114.5t-23 -110.5t-23 -109.5t-10 -113.5q0 -35 12.5 -64t35.5 -50t54 -32.5t68 -11.5v-37q-37 0 -68 -12t-54 -33.5t-35.5 -50.5t-12.5 -64 q0 -58 10 -113.5t23 -110t23 -109.5t10 -115q0 -58 -18 -108t-52.5 -87.5t-83 -58.5t-108.5 -21h-57v23z" />
<glyph unicode="~" d="M159 456q0 49 14.5 92.5t43 76.5t70 52t94.5 19q35 0 71.5 -10t74 -25.5t75 -34t73.5 -33.5t70 -25.5t66 -10.5q41 0 74.5 15t56.5 41.5t35.5 62t13.5 77.5h44q0 -49 -14.5 -93t-43.5 -76.5t-70 -52t-94 -19.5q-52 0 -108.5 22t-112 48t-109 48t-100.5 22 q-42 0 -75 -14.5t-56 -41.5t-35.5 -62.5t-13.5 -77.5h-44z" />
<glyph unicode="&#xa1;" horiz-adv-x="447" d="M143 949q0 33 22.5 55t55.5 22t56 -22t23 -55t-23 -56t-56 -23t-55.5 23t-22.5 56zM198 203q0 45 0.5 85t1.5 82t3 89t4 106h36q2 -59 4 -106t3.5 -89t2 -82t0.5 -85v-569h-55v569z" />
<glyph unicode="&#xa2;" d="M182 505q0 116 33 211.5t95 164t152.5 106.5t206.5 39l9 225q0 23 19 23h21l-10 -249q91 -5 162 -34t124 -75l-14 -17q-5 -7 -13 -7q-7 0 -24.5 13t-48.5 28.5t-77.5 30.5t-110.5 18l-38 -952q55 1 98.5 10t77 22t58 27t41 27t27 21t16.5 8q8 0 13 -7l13 -14 q-19 -25 -52.5 -49t-78 -43t-99 -31t-115.5 -13l-10 -234q-2 -23 -19 -22h-22l11 257q-101 4 -183.5 40.5t-140 102.5t-89.5 160t-32 213zM236 505q0 -110 27.5 -196.5t79 -147t124 -94t161.5 -37.5l39 953q-102 -1 -182.5 -35t-135.5 -96t-84 -150t-29 -197z" />
<glyph unicode="&#xa3;" d="M69 657v18q0 10 7 15.5t16 5.5h186v319q0 95 26 175.5t77 139t127.5 91.5t177.5 33q77 0 135.5 -18.5t101.5 -50t73 -74t51 -89.5l-22 -11q-10 -4 -17.5 -2t-15.5 14q-20 35 -44 68.5t-59 59.5t-84 42t-119 16q-87 0 -153 -29t-110.5 -81.5t-67 -124.5t-22.5 -159v-319 h511v-21q0 -8 -6.5 -13t-14.5 -5h-490v-345q0 -100 -43 -164t-116 -107q40 6 80 6h864v-22q0 -8 -7 -16.5t-19 -8.5h-997v40q36 15 69 36.5t58.5 53.5t40.5 74t15 99v354h-209z" />
<glyph unicode="&#xa4;" d="M177 298l160 160q-40 46 -63 103.5t-23 124.5t22.5 124.5t62.5 103.5l-159 160l29 29l159 -160q46 42 104 65t125 23t124.5 -23t103.5 -64l160 160l29 -30l-160 -159q41 -46 64.5 -104t23.5 -125t-23.5 -124.5t-64.5 -103.5l160 -159l-29 -29l-159 159 q-46 -41 -104.5 -63.5t-124.5 -22.5t-123.5 22.5t-103.5 63.5l-161 -160zM293 686q0 -61 24 -116t65 -96t95.5 -65t116.5 -24t117.5 24t96.5 65t65 96t24 116q0 62 -24 118t-65 97t-96.5 65t-117.5 24q-61 0 -116 -24t-96 -65t-65 -97t-24 -118z" />
<glyph unicode="&#xa5;" d="M115 1440h44q16 0 24 -16l391 -733q5 -13 10.5 -24.5t9.5 -22.5q4 11 8.5 22.5t10.5 24.5l392 733q8 15 23 16h45l-440 -814h376v-36h-388v-127h388v-36h-388v-427h-54v427h-389v36h389v127h-389v36h377z" />
<glyph unicode="&#xa6;" horiz-adv-x="481" d="M219 -366v787h43v-787h-43zM219 758v786h43v-786h-43z" />
<glyph unicode="&#xa7;" horiz-adv-x="982" d="M127 739q0 38 11.5 73.5t36 66.5t63 57.5t95.5 46.5q-58 37 -95 86.5t-37 123.5q0 52 23 99.5t65.5 84t101.5 58t130 21.5q88 0 155.5 -24.5t128.5 -77.5l-10 -18q-6 -9 -16 -9q-9 0 -26 14t-46.5 29.5t-74.5 29.5t-110 14q-61 0 -111.5 -18t-86 -48t-55 -70t-19.5 -83 q0 -51 26 -89t68 -68t96.5 -55t110.5 -50t110.5 -52.5t96.5 -64.5t68 -84t26 -111q0 -86 -43.5 -147.5t-125.5 -97.5q55 -39 90.5 -88.5t35.5 -120.5q0 -63 -22.5 -118.5t-66 -97t-106.5 -65t-144 -23.5q-54 0 -98 8.5t-81.5 24.5t-70.5 38.5t-63 50.5l13 17q7 10 18 10 q10 0 29.5 -17t51.5 -37t81.5 -37t121.5 -17q70 0 123.5 20t90.5 54.5t56 81t19 100.5q0 55 -27 96.5t-72 73.5t-101.5 58.5t-116.5 51.5t-117 52.5t-101.5 62t-71.5 79.5t-27 105zM175 745q0 -47 22 -83t59.5 -65.5t86 -54t102 -47.5t106.5 -47t100 -52q81 37 117 91.5 t36 123.5q0 51 -20 90.5t-54 71t-78.5 56t-93 46t-98 43t-94.5 46.5q-104 -42 -147.5 -96.5t-43.5 -122.5z" />
<glyph unicode="&#xa8;" horiz-adv-x="819" d="M169 1313q0 28 20 47.5t48 19.5q27 0 47.5 -19.5t20.5 -47.5q0 -27 -21 -47t-47 -20q-28 0 -48 20t-20 47zM514 1313q0 28 20.5 47.5t48.5 19.5q27 0 47 -19.5t20 -47.5q0 -27 -20.5 -47t-46.5 -20q-28 0 -48.5 20t-20.5 47z" />
<glyph unicode="&#xa9;" horiz-adv-x="1732" d="M132 720q0 101 26 195t74.5 175.5t115 148.5t148.5 115t175.5 74t194.5 26t195 -26t175.5 -74t148.5 -115t115 -148.5t74.5 -175.5t26.5 -195t-26.5 -195t-74.5 -176t-115 -148.5t-148.5 -114.5t-175 -74t-195.5 -26q-101 0 -194.5 26t-175.5 74t-148.5 114.5t-115 148.5 t-74.5 176t-26 195zM171 720q0 -96 24.5 -185.5t69.5 -167t108.5 -141t141 -108.5t166.5 -70t185 -25t185.5 25t166.5 70t141 108.5t109 141t70.5 167t25.5 185.5t-25.5 185.5t-70.5 167.5t-109 142t-141 109t-166 70t-186 25q-96 0 -185 -25t-166.5 -70t-141 -109 t-108.5 -142t-69.5 -167.5t-24.5 -185.5zM430 720q0 102 34 186.5t94 145.5t145 94.5t187 33.5q53 0 96 -7.5t80 -21t69.5 -33.5t65.5 -47l-12 -17q-4 -7 -14 -7q-8 0 -25 14t-49.5 31t-83 31.5t-125.5 14.5q-91 0 -167 -29.5t-130 -83.5t-84.5 -131.5t-30.5 -173.5 q0 -98 30 -175t83 -130.5t125.5 -81.5t158.5 -28q57 0 101 7t79.5 21t65 33.5t60.5 44.5q5 1 7.5 0.5t4.5 -1.5l22 -21q-60 -56 -141.5 -91t-199.5 -35q-97 0 -179.5 32.5t-141.5 91.5t-92 143.5t-33 189.5z" />
<glyph unicode="&#xaa;" horiz-adv-x="753" d="M138 997q0 38 23 71t72.5 57.5t125.5 39t183 16.5v60q0 85 -38 130t-121 45q-46 0 -78.5 -11.5t-54.5 -26.5t-34.5 -27t-20.5 -12q-5 0 -9 3t-6 5l-7 13q46 47 97 70t116 23q99 0 149 -56.5t50 -155.5v-383h-19q-12 0 -16 14l-7 81q-27 -25 -53 -44t-54.5 -32.5 t-61 -20.5t-70.5 -7q-31 0 -61 8t-53 26t-37.5 46t-14.5 68zM180 1000q0 -32 11.5 -53.5t30 -36t42 -21t49.5 -6.5q38 0 70.5 8t59.5 23t51 34.5t48 40.5v160q-187 -7 -274.5 -45t-87.5 -104z" />
<glyph unicode="&#xab;" horiz-adv-x="779" d="M122 139zM122 522v7l243 383l15 -9q19 -10 5 -34l-200 -318q-7 -11 -12 -17t-9 -9q9 -5 21 -24l200 -319q8 -11 5.5 -19.5t-10.5 -14.5l-15 -9zM362 522v7l243 383l15 -9q19 -10 5 -34l-200 -318q-7 -11 -12 -17t-9 -9q9 -5 21 -24l200 -319q8 -11 5.5 -19.5t-10.5 -14.5 l-15 -9z" />
<glyph unicode="&#xac;" d="M181 666v42h832v-348h-47v306h-785z" />
<glyph unicode="&#xae;" horiz-adv-x="1732" d="M132 720q0 101 26 195t74.5 175.5t115 148.5t148.5 115t175.5 74t194.5 26t195 -26t175.5 -74t148.5 -115t115 -148.5t74.5 -175.5t26.5 -195t-26.5 -195t-74.5 -176t-115 -148.5t-148.5 -114.5t-175 -74t-195.5 -26q-101 0 -194.5 26t-175.5 74t-148.5 114.5t-115 148.5 t-74.5 176t-26 195zM171 720q0 -96 24.5 -185.5t69.5 -167t108.5 -141t141 -108.5t166.5 -70t185 -25t185.5 25t166.5 70t141 108.5t109 141t70.5 167t25.5 185.5t-25.5 185.5t-70.5 167.5t-109 142t-141 109t-166 70t-186 25q-96 0 -185 -25t-166.5 -70t-141 -109 t-108.5 -142t-69.5 -167.5t-24.5 -185.5zM609 268v903h232q146 0 224 -56t78 -174q0 -52 -19 -95t-54 -75t-85 -51.5t-112 -24.5q10 -5 18 -12.5t16 -18.5l323 -396h-45q-7 0 -12.5 2t-10.5 10l-313 386q-8 10 -20.5 16.5t-41.5 6.5h-129v-421h-49zM658 728h169 q129 0 198 54.5t69 155.5q0 102 -62 148.5t-191 46.5h-183v-405z" />
<glyph unicode="&#xaf;" horiz-adv-x="819" d="M138 1293v39h543v-39h-543z" />
<glyph unicode="&#xb0;" horiz-adv-x="846" d="M128 1165q0 60 23 113.5t63 93t93.5 62t115.5 22.5q61 0 115.5 -22.5t94.5 -62t63 -92.5t23 -114q0 -60 -23 -113.5t-63 -93t-94.5 -63t-115.5 -23.5t-115 23.5t-94 63t-63 93t-23 113.5zM172 1165q0 -52 19.5 -98t54 -80.5t80 -54t97.5 -19.5t98 19.5t80.5 54t54 80.5 t19.5 98t-19.5 98.5t-54 80t-80.5 53.5t-98 20t-97.5 -20t-80 -53.5t-54 -80t-19.5 -98.5z" />
<glyph unicode="&#xb1;" d="M119 82v42h950v-42h-950zM119 682v42h451v430h45v-430h454v-42h-454v-431h-45v431h-451z" />
<glyph unicode="&#xb2;" horiz-adv-x="684" d="M104 922v14q0 11 10 21l248 252q31 31 57.5 60t46.5 59t31.5 62.5t11.5 68.5q0 41 -14 71t-37 49.5t-52.5 28.5t-61.5 9q-72 0 -117.5 -40.5t-59.5 -106.5q-5 -14 -24 -13l-21 4q6 46 25 81.5t48 60.5t67 38t83 13q41 0 78.5 -11.5t66 -36t45.5 -61t17 -85.5 q0 -41 -13 -76.5t-34.5 -68t-50 -62.5t-59.5 -62l-233 -236q31 6 69 6h325q14 0 14 -14v-25h-466zM104 922z" />
<glyph unicode="&#xb3;" horiz-adv-x="684" d="M99 913zM99 1097l17 8q7 3 15.5 2t12.5 -12q3 -7 10.5 -30.5t27.5 -49t56 -45.5t96 -20q47 0 82.5 15t59.5 40t35.5 54.5t11.5 58.5q0 35 -11.5 64t-36.5 50.5t-65.5 33t-98.5 11.5v30q94 3 144.5 45.5t50.5 113.5q0 39 -13.5 67.5t-36 47t-51.5 27.5t-61 9 q-72 0 -117.5 -41t-59.5 -106q-5 -14 -22 -13l-22 4q13 92 73 142.5t149 50.5q41 0 78 -11t64.5 -34t44 -57t16.5 -80q0 -36 -11.5 -64.5t-31 -50.5t-46.5 -37.5t-58 -22.5q81 -14 123.5 -60.5t42.5 -116.5q0 -44 -18 -82t-49 -65.5t-73.5 -43t-91.5 -15.5q-62 0 -104 17 t-68 43.5t-40 58.5t-24 64z" />
<glyph unicode="&#xb4;" horiz-adv-x="819" d="M335 1187l166 243q10 15 19 20.5t30 5.5h55l-213 -257q-9 -12 -24 -12h-33z" />
<glyph unicode="&#xb5;" horiz-adv-x="1289" d="M214 -341v1351h54v-640q0 -79 17.5 -142t54 -106.5t91 -66.5t128.5 -23q113 0 206.5 59.5t164.5 166.5v752h53v-786q0 -50 15 -86t41 -59t62.5 -34t79.5 -11h34v-23q0 -8 -14.5 -13.5t-45.5 -5.5q-42 0 -81 12t-68.5 38.5t-48.5 67t-22 97.5q-70 -102 -166.5 -160.5 t-211.5 -58.5q-119 0 -191.5 51t-104.5 147q2 -47 3.5 -97.5t1.5 -92.5v-362h-26q-12 0 -19 7t-7 18z" />
<glyph unicode="&#xb6;" horiz-adv-x="1298" d="M82 1097q0 79 30.5 142.5t88.5 108t141 68.5t188 24h697v-47h-234v-1581h-50v1581h-362v-1581h-51v924q-105 0 -188 27.5t-141 76t-88.5 114.5t-30.5 143z" />
<glyph unicode="&#xb7;" horiz-adv-x="477" d="M161 605q0 33 23 56.5t53 23.5q33 0 56.5 -23.5t23.5 -56.5q0 -15 -6.5 -29t-17 -24.5t-25.5 -17t-31 -6.5q-15 0 -28.5 6.5t-24.5 17t-17 24.5t-6 29z" />
<glyph unicode="&#xb8;" horiz-adv-x="819" d="M272 -317l8 14q6 8 12 8q5 0 13.5 -6.5t24 -14.5t38.5 -14t56 -6q58 0 90.5 25t32.5 69q0 30 -15 49t-40.5 31t-60.5 19t-75 12l43 136h35l-34 -110q44 -7 80 -17.5t60.5 -26t38 -38t13.5 -53.5q0 -60 -48 -93.5t-123 -33.5q-42 0 -83 14t-66 36z" />
<glyph unicode="&#xb9;" horiz-adv-x="684" d="M154 922zM154 1465l209 185h33v-697h160v-31h-373v31h169v606l4 36l-168 -150q-5 -5 -11.5 -4t-10.5 5z" />
<glyph unicode="&#xba;" horiz-adv-x="830" d="M134 1149q0 69 19 125t55 96t88 61.5t120 21.5q67 0 119 -21.5t87.5 -61.5t54.5 -96t19 -125q0 -70 -19 -125.5t-54.5 -95t-88 -61t-118.5 -21.5q-68 0 -120 21.5t-88 61t-55 95t-19 125.5zM177 1149q0 -61 15 -111t45 -85t75 -54t104 -19q58 0 102.5 19t75 54t45 84.5 t14.5 111.5q0 61 -14.5 111t-45 85t-75 54.5t-102.5 19.5q-59 0 -104 -19.5t-75 -54.5t-45 -85t-15 -111z" />
<glyph unicode="&#xbb;" horiz-adv-x="781" d="M142 139zM151 162q-3 9 6 20l199 319q6 11 11.5 16.5t9.5 7.5q-4 3 -9.5 9t-11.5 17l-199 318q-14 24 5 34l15 9l243 -383v-7l-243 -383l-15 9q-8 5 -11 14zM391 162q-3 9 6 20l199 319q6 11 11.5 16.5t9.5 7.5q-4 3 -9.5 9t-11.5 17l-199 318q-14 24 5 34l15 9l243 -383 v-7l-243 -383l-15 9q-8 5 -11 14z" />
<glyph unicode="&#xbc;" horiz-adv-x="1468" d="M115 0zM115 1259l209 185h33v-697h160v-31h-373v31h169v606l4 36l-168 -150q-5 -5 -11.5 -4t-10.5 5zM305 0l810 1418q10 22 35 22h25l-810 -1420q-8 -12 -17 -16t-19 -4h-24zM838 240l366 484h39v-481h138v-21q0 -12 -13 -12h-125v-210h-38v210h-345q-17 0 -17 10z M884 243h321v393q0 17 3 38z" />
<glyph unicode="&#xbd;" horiz-adv-x="1447" d="M119 0zM119 1259l209 185h33v-697h160v-31h-373v31h169v606l4 36l-168 -150q-5 -5 -11.5 -4t-10.5 5zM259 0l810 1418q10 22 35 22h25l-810 -1420q-8 -12 -17 -16t-19 -4h-24zM876 0v14q0 11 10 21l248 252q31 31 57.5 60t46.5 59t31.5 62.5t11.5 68.5q0 41 -14 71 t-37 49.5t-52.5 28.5t-61.5 9q-72 0 -117.5 -40.5t-59.5 -106.5q-5 -14 -24 -13l-21 4q6 46 25 81.5t48 60.5t67 38t83 13q41 0 78.5 -11.5t66 -36t45.5 -61t17 -85.5q0 -41 -13 -76.5t-34.5 -68t-50 -62.5t-59.5 -62l-233 -236q31 6 69 6h325q14 0 14 -14v-25h-466z" />
<glyph unicode="&#xbe;" horiz-adv-x="1489" d="M111 891l17 8q7 3 15.5 2t12.5 -12q3 -7 10.5 -30.5t27.5 -49t56 -45.5t96 -20q47 0 82.5 15t59.5 40t35.5 54.5t11.5 58.5q0 35 -11.5 64t-36.5 50.5t-65.5 33t-98.5 11.5v30q94 3 144.5 45.5t50.5 113.5q0 39 -13.5 67.5t-36 47t-51.5 27.5t-61 9q-72 0 -117.5 -41 t-59.5 -106q-5 -14 -22 -13l-22 4q13 92 73 142.5t149 50.5q41 0 78 -11t64.5 -34t44 -57t16.5 -80q0 -36 -11.5 -64.5t-31 -50.5t-46.5 -37.5t-58 -22.5q81 -14 123.5 -60.5t42.5 -116.5q0 -44 -18 -82t-49 -65.5t-73.5 -43t-91.5 -15.5q-62 0 -104 17t-68 43.5t-40 58.5 t-24 64zM112 0zM336 0l810 1418q10 22 35 22h25l-810 -1420q-8 -12 -17 -16t-19 -4h-24zM859 240l366 484h39v-481h138v-21q0 -12 -13 -12h-125v-210h-38v210h-345q-17 0 -17 10zM905 243h321v393q0 17 3 38z" />
<glyph unicode="&#xbf;" horiz-adv-x="844" d="M98 -79q0 77 24.5 132.5t62.5 95t81.5 69.5t81.5 56.5t63.5 53.5t27.5 64l10 173h35l2 -177q1 -31 -13 -55.5t-37.5 -46t-54 -41.5t-62 -42t-62.5 -48t-54.5 -59.5t-38 -75.5t-14.5 -96q0 -60 24 -107.5t64 -80.5t92 -50.5t108 -17.5q71 0 122.5 19.5t87 43t55 43 t24.5 19.5q8 0 14 -8l14 -21q-26 -27 -58 -52t-72 -44.5t-87.5 -31.5t-102.5 -12q-67 0 -127.5 20t-107 58.5t-74.5 94t-28 124.5zM390 947q0 33 22 56t55 23t56 -23t23 -56t-23 -55t-56 -22t-55 22t-22 55z" />
<glyph unicode="&#xc0;" horiz-adv-x="1319" d="M37 0l596 1440h54l596 -1440h-44q-15 0 -22 17l-188 456h-739l-188 -456q-5 -17 -23 -17h-42zM37 0zM308 516h703l-330 802q-5 14 -10.5 28.5t-11.5 31.5q-5 -17 -10.5 -31.5t-10.5 -28.5zM387 1880h67q20 0 30.5 -3.5t19.5 -14.5l251 -286h-34q-8 0 -14 1.5t-13 7.5z " />
<glyph unicode="&#xc1;" horiz-adv-x="1319" d="M37 0l596 1440h54l596 -1440h-44q-15 0 -22 17l-188 456h-739l-188 -456q-5 -17 -23 -17h-42zM37 0zM308 516h703l-330 802q-5 14 -10.5 28.5t-11.5 31.5q-5 -17 -10.5 -31.5t-10.5 -28.5zM570 1576l278 286q10 11 20.5 14.5t30.5 3.5h69l-337 -295q-10 -9 -27 -9h-34z " />
<glyph unicode="&#xc2;" horiz-adv-x="1319" d="M37 0l596 1440h54l596 -1440h-44q-15 0 -22 17l-188 456h-739l-188 -456q-5 -17 -23 -17h-42zM37 0zM308 516h703l-330 802q-5 14 -10.5 28.5t-11.5 31.5q-5 -17 -10.5 -31.5t-10.5 -28.5zM400 1576l238 272h44l239 -272h-41q-6 0 -14 2t-15 10l-186 214l-5 7l-6 -7 l-186 -214q-7 -8 -14.5 -10t-14.5 -2h-39z" />
<glyph unicode="&#xc3;" horiz-adv-x="1319" d="M37 0l596 1440h54l596 -1440h-44q-15 0 -22 17l-188 456h-739l-188 -456q-5 -17 -23 -17h-42zM37 0zM308 516h703l-330 802q-5 14 -10.5 28.5t-11.5 31.5q-5 -17 -10.5 -31.5t-10.5 -28.5zM396 1593q0 31 10 58.5t28.5 49t44.5 34t59 12.5q36 0 68.5 -18.5t64 -40t61 -40 t59.5 -18.5q50 0 78.5 33.5t30.5 80.5h34q0 -31 -9 -58.5t-27 -48.5t-44 -33.5t-60 -12.5q-36 0 -68.5 18.5t-63.5 40t-60.5 40t-59.5 18.5q-25 0 -45 -9t-34 -25t-22 -37t-9 -44h-36z" />
<glyph unicode="&#xc4;" horiz-adv-x="1319" d="M37 0l596 1440h54l596 -1440h-44q-15 0 -22 17l-188 456h-739l-188 -456q-5 -17 -23 -17h-42zM37 0zM308 516h703l-330 802q-5 14 -10.5 28.5t-11.5 31.5q-5 -17 -10.5 -31.5t-10.5 -28.5zM398 1704q0 28 20.5 48.5t47.5 20.5t47.5 -20.5t20.5 -48.5q0 -26 -20.5 -46 t-47.5 -20q-13 0 -25.5 6t-21.5 15t-15 21t-6 24zM786 1704q0 28 19.5 48.5t47.5 20.5q26 0 47 -20.5t21 -48.5q0 -26 -21 -46t-47 -20q-28 0 -47.5 20t-19.5 46z" />
<glyph unicode="&#xc5;" horiz-adv-x="1319" d="M37 0l596 1440h54l596 -1440h-44q-15 0 -22 17l-188 456h-739l-188 -456q-5 -17 -23 -17h-42zM37 0zM308 516h703l-330 802q-5 14 -10.5 28.5t-11.5 31.5q-5 -17 -10.5 -31.5t-10.5 -28.5zM500 1718q0 33 12.5 61t34 48.5t51 32.5t62.5 12t62 -12t50.5 -32.5t34 -48.5 t12.5 -61t-12.5 -61t-34 -48.5t-51 -31.5t-61.5 -11q-33 0 -62.5 11t-51 31.5t-34 48.5t-12.5 61zM536 1718q0 -27 9 -49t25.5 -39t39.5 -26.5t50 -9.5t49.5 9.5t39 26.5t26 39.5t9.5 48.5q0 54 -35 89.5t-89 35.5t-89 -35.5t-35 -89.5z" />
<glyph unicode="&#xc6;" horiz-adv-x="1896" d="M19 0l815 1440h950v-48h-871l82 -638h664v-47h-658l85 -659h700l-2 -48h-745l-61 473h-631l-258 -458q-8 -15 -24 -15h-46zM372 516h601l-114 879q-5 -19 -12.5 -36.5t-18.5 -35.5z" />
<glyph unicode="&#xc7;" horiz-adv-x="1392" d="M131 720q0 165 50 300.5t142 232.5t219.5 150t280.5 53q144 0 256 -44t208 -127l-15 -22q-4 -7 -17 -8q-6 0 -20.5 11.5t-39 28.5t-58.5 37t-80 36.5t-104.5 28t-129.5 11.5q-139 0 -255.5 -48t-200.5 -137t-131 -216.5t-47 -286.5q0 -162 47 -289.5t130 -216 t195.5 -135.5t244.5 -47q83 0 148.5 11t120 33.5t101.5 55.5t93 75q7 7 13 7q4 0 11 -5l22 -23q-44 -44 -94.5 -80t-110 -63t-131 -42t-156.5 -17l-26 -89q44 -7 79.5 -17.5t60.5 -26t38 -38t13 -53.5q0 -60 -48 -93.5t-123 -33.5q-42 0 -83 14t-65 36l7 14q6 8 12 8 q5 0 14 -6.5t24 -14.5t38 -14t56 -6q58 0 90.5 25t32.5 69q0 30 -15 49t-40.5 31t-60 19t-74.5 12l35 115q-144 3 -264.5 55.5t-208 148t-136 230.5t-48.5 302z" />
<glyph unicode="&#xc8;" horiz-adv-x="1190" d="M228 0v1440h850v-48h-793v-638h668v-47h-668v-659h795l-2 -48h-850zM228 0zM389 1880h67q20 0 30.5 -3.5t19.5 -14.5l251 -286h-34q-8 0 -14 1.5t-13 7.5z" />
<glyph unicode="&#xc9;" horiz-adv-x="1190" d="M228 0v1440h850v-48h-793v-638h668v-47h-668v-659h795l-2 -48h-850zM228 0zM572 1576l278 286q10 11 20.5 14.5t30.5 3.5h69l-337 -295q-10 -9 -27 -9h-34z" />
<glyph unicode="&#xca;" horiz-adv-x="1190" d="M228 0v1440h850v-48h-793v-638h668v-47h-668v-659h795l-2 -48h-850zM228 0zM402 1576l238 272h44l239 -272h-41q-6 0 -14 2t-15 10l-186 214l-5 7l-6 -7l-186 -214q-7 -8 -14.5 -10t-14.5 -2h-39z" />
<glyph unicode="&#xcb;" horiz-adv-x="1190" d="M228 0v1440h850v-48h-793v-638h668v-47h-668v-659h795l-2 -48h-850zM228 0zM400 1704q0 28 20.5 48.5t47.5 20.5t47.5 -20.5t20.5 -48.5q0 -26 -20.5 -46t-47.5 -20q-13 0 -25.5 6t-21.5 15t-15 21t-6 24zM788 1704q0 28 19.5 48.5t47.5 20.5q26 0 47 -20.5t21 -48.5 q0 -26 -21 -46t-47 -20q-28 0 -47.5 20t-19.5 46z" />
<glyph unicode="&#xcc;" horiz-adv-x="513" d="M-14 1880h67q20 0 30.5 -3.5t19.5 -14.5l251 -286h-34q-8 0 -14 1.5t-13 7.5zM0 0zM228 0v1440h57v-1440h-57z" />
<glyph unicode="&#xcd;" horiz-adv-x="513" d="M169 0zM169 1576l278 286q10 11 20.5 14.5t30.5 3.5h69l-337 -295q-10 -9 -27 -9h-34zM228 0v1440h57v-1440h-57z" />
<glyph unicode="&#xce;" horiz-adv-x="513" d="M-1 1576l238 272h44l239 -272h-41q-6 0 -14 2t-15 10l-186 214l-5 7l-6 -7l-186 -214q-7 -8 -14.5 -10t-14.5 -2h-39zM0 0zM228 0v1440h57v-1440h-57z" />
<glyph unicode="&#xcf;" horiz-adv-x="513" d="M-3 1704q0 28 20.5 48.5t47.5 20.5t47.5 -20.5t20.5 -48.5q0 -26 -20.5 -46t-47.5 -20q-13 0 -25.5 6t-21.5 15t-15 21t-6 24zM0 0zM228 0v1440h57v-1440h-57zM385 1704q0 28 19.5 48.5t47.5 20.5q26 0 47 -20.5t21 -48.5q0 -26 -21 -46t-47 -20q-28 0 -47.5 20t-19.5 46 z" />
<glyph unicode="&#xd0;" horiz-adv-x="1567" d="M9 712v39h232v689h518q151 0 274.5 -49.5t212.5 -142t138.5 -226t49.5 -302.5t-49.5 -302.5t-138.5 -226.5t-213 -142t-274 -49h-518v712h-232zM297 46h462q137 0 250 45t194.5 131t126 211.5t44.5 286.5t-44.5 286.5t-126 211.5t-194.5 131t-250 45h-462v-643h342v-39 h-342v-666z" />
<glyph unicode="&#xd1;" horiz-adv-x="1538" d="M228 0v1440h26q8 0 13 -2.5t12 -11.5l983 -1330q-1 9 -1 18.5v17.5v1308h49v-1440h-24q-13 0 -22 12l-989 1336q1 -10 2 -19.5t1 -17.5v-1311h-50zM532 1591q0 31 10 58.5t28.5 49t44.5 34t59 12.5q36 0 68.5 -18.5t64 -40t61 -40t59.5 -18.5q50 0 78.5 33.5t30.5 80.5 h34q0 -31 -9 -58.5t-27 -48.5t-44 -33.5t-60 -12.5q-36 0 -68.5 18.5t-63.5 40t-60.5 40t-59.5 18.5q-25 0 -45 -9t-34 -25t-22 -37t-9 -44h-36z" />
<glyph unicode="&#xd2;" horiz-adv-x="1611" d="M132 0zM132 720q0 168 49 304t138.5 232t213 148t272.5 52q151 0 274.5 -51.5t212.5 -147.5t138.5 -232t49.5 -305t-49.5 -304.5t-138.5 -231.5t-213 -147t-274 -51q-148 0 -272 51t-213.5 147t-138.5 231.5t-49 304.5zM189 720q0 -161 46 -288.5t127 -215.5t194.5 -135 t248.5 -47q137 0 250 47t194.5 135t126 215.5t44.5 288.5t-44.5 288.5t-126 216.5t-194.5 136t-250 47q-135 0 -248.5 -47t-194.5 -136t-127 -216.5t-46 -288.5zM534 1880h67q20 0 30.5 -3.5t19.5 -14.5l251 -286h-34q-8 0 -14 1.5t-13 7.5z" />
<glyph unicode="&#xd3;" horiz-adv-x="1611" d="M132 0zM132 720q0 168 49 304t138.5 232t213 148t272.5 52q151 0 274.5 -51.5t212.5 -147.5t138.5 -232t49.5 -305t-49.5 -304.5t-138.5 -231.5t-213 -147t-274 -51q-148 0 -272 51t-213.5 147t-138.5 231.5t-49 304.5zM189 720q0 -161 46 -288.5t127 -215.5t194.5 -135 t248.5 -47q137 0 250 47t194.5 135t126 215.5t44.5 288.5t-44.5 288.5t-126 216.5t-194.5 136t-250 47q-135 0 -248.5 -47t-194.5 -136t-127 -216.5t-46 -288.5zM717 1576l278 286q10 11 20.5 14.5t30.5 3.5h69l-337 -295q-10 -9 -27 -9h-34z" />
<glyph unicode="&#xd4;" horiz-adv-x="1611" d="M132 0zM132 720q0 168 49 304t138.5 232t213 148t272.5 52q151 0 274.5 -51.5t212.5 -147.5t138.5 -232t49.5 -305t-49.5 -304.5t-138.5 -231.5t-213 -147t-274 -51q-148 0 -272 51t-213.5 147t-138.5 231.5t-49 304.5zM189 720q0 -161 46 -288.5t127 -215.5t194.5 -135 t248.5 -47q137 0 250 47t194.5 135t126 215.5t44.5 288.5t-44.5 288.5t-126 216.5t-194.5 136t-250 47q-135 0 -248.5 -47t-194.5 -136t-127 -216.5t-46 -288.5zM547 1576l238 272h44l239 -272h-41q-6 0 -14 2t-15 10l-186 214l-5 7l-6 -7l-186 -214q-7 -8 -14.5 -10 t-14.5 -2h-39z" />
<glyph unicode="&#xd5;" horiz-adv-x="1611" d="M132 0zM132 720q0 168 49 304t138.5 232t213 148t272.5 52q151 0 274.5 -51.5t212.5 -147.5t138.5 -232t49.5 -305t-49.5 -304.5t-138.5 -231.5t-213 -147t-274 -51q-148 0 -272 51t-213.5 147t-138.5 231.5t-49 304.5zM189 720q0 -161 46 -288.5t127 -215.5t194.5 -135 t248.5 -47q137 0 250 47t194.5 135t126 215.5t44.5 288.5t-44.5 288.5t-126 216.5t-194.5 136t-250 47q-135 0 -248.5 -47t-194.5 -136t-127 -216.5t-46 -288.5zM543 1593q0 31 10 58.5t28.5 49t44.5 34t59 12.5q36 0 68.5 -18.5t64 -40t61 -40t59.5 -18.5q50 0 78.5 33.5 t30.5 80.5h34q0 -31 -9 -58.5t-27 -48.5t-44 -33.5t-60 -12.5q-36 0 -68.5 18.5t-63.5 40t-60.5 40t-59.5 18.5q-25 0 -45 -9t-34 -25t-22 -37t-9 -44h-36z" />
<glyph unicode="&#xd6;" horiz-adv-x="1611" d="M132 0zM132 720q0 168 49 304t138.5 232t213 148t272.5 52q151 0 274.5 -51.5t212.5 -147.5t138.5 -232t49.5 -305t-49.5 -304.5t-138.5 -231.5t-213 -147t-274 -51q-148 0 -272 51t-213.5 147t-138.5 231.5t-49 304.5zM189 720q0 -161 46 -288.5t127 -215.5t194.5 -135 t248.5 -47q137 0 250 47t194.5 135t126 215.5t44.5 288.5t-44.5 288.5t-126 216.5t-194.5 136t-250 47q-135 0 -248.5 -47t-194.5 -136t-127 -216.5t-46 -288.5zM545 1704q0 28 20.5 48.5t47.5 20.5t47.5 -20.5t20.5 -48.5q0 -26 -20.5 -46t-47.5 -20q-13 0 -25.5 6 t-21.5 15t-15 21t-6 24zM933 1704q0 28 19.5 48.5t47.5 20.5q26 0 47 -20.5t21 -48.5q0 -26 -21 -46t-47 -20q-28 0 -47.5 20t-19.5 46z" />
<glyph unicode="&#xd7;" d="M172 293l392 393l-390 389l32 32l389 -390l387 388l32 -32l-388 -387l390 -391l-30 -30l-391 390l-393 -392z" />
<glyph unicode="&#xd8;" horiz-adv-x="1611" d="M132 720q0 168 49 304t138.5 232t213 148t272.5 52q128 0 235.5 -37t192.5 -107l130 174q8 10 14 14.5t19 4.5h32l-164 -220q102 -96 159 -239t57 -326q0 -169 -49.5 -304.5t-138.5 -231.5t-213 -147t-274 -51q-121 0 -225.5 33.5t-188.5 98.5l-151 -203 q-8 -11 -18.5 -15.5t-20.5 -4.5h-27l186 249q-109 96 -168.5 241.5t-59.5 334.5zM189 720q0 -176 53 -310.5t149 -223.5l811 1085q-79 68 -178.5 102.5t-218.5 34.5q-135 0 -248.5 -47t-194.5 -136t-127 -216.5t-46 -288.5zM422 160q77 -61 173.5 -93.5t209.5 -32.5 q137 0 250 47t194.5 135t126 215.5t44.5 288.5q0 170 -49 301t-139 221z" />
<glyph unicode="&#xd9;" horiz-adv-x="1480" d="M210 0zM210 541v899h56v-897q0 -106 32.5 -199.5t93.5 -162.5t148.5 -108.5t199.5 -39.5t199.5 39.5t148.5 108t93 161t32 199.5v899h58v-899q0 -117 -37 -219t-106 -177.5t-167 -119t-221 -43.5t-221 43.5t-166.5 119t-105.5 177.5t-37 219zM468 1880h67q20 0 30.5 -3.5 t19.5 -14.5l251 -286h-34q-8 0 -14 1.5t-13 7.5z" />
<glyph unicode="&#xda;" horiz-adv-x="1480" d="M210 0zM210 541v899h56v-897q0 -106 32.5 -199.5t93.5 -162.5t148.5 -108.5t199.5 -39.5t199.5 39.5t148.5 108t93 161t32 199.5v899h58v-899q0 -117 -37 -219t-106 -177.5t-167 -119t-221 -43.5t-221 43.5t-166.5 119t-105.5 177.5t-37 219zM651 1576l278 286 q10 11 20.5 14.5t30.5 3.5h69l-337 -295q-10 -9 -27 -9h-34z" />
<glyph unicode="&#xdb;" horiz-adv-x="1480" d="M210 0zM210 541v899h56v-897q0 -106 32.5 -199.5t93.5 -162.5t148.5 -108.5t199.5 -39.5t199.5 39.5t148.5 108t93 161t32 199.5v899h58v-899q0 -117 -37 -219t-106 -177.5t-167 -119t-221 -43.5t-221 43.5t-166.5 119t-105.5 177.5t-37 219zM481 1576l238 272h44 l239 -272h-41q-6 0 -14 2t-15 10l-186 214l-5 7l-6 -7l-186 -214q-7 -8 -14.5 -10t-14.5 -2h-39z" />
<glyph unicode="&#xdc;" horiz-adv-x="1480" d="M210 0zM210 541v899h56v-897q0 -106 32.5 -199.5t93.5 -162.5t148.5 -108.5t199.5 -39.5t199.5 39.5t148.5 108t93 161t32 199.5v899h58v-899q0 -117 -37 -219t-106 -177.5t-167 -119t-221 -43.5t-221 43.5t-166.5 119t-105.5 177.5t-37 219zM479 1704q0 28 20.5 48.5 t47.5 20.5t47.5 -20.5t20.5 -48.5q0 -26 -20.5 -46t-47.5 -20q-13 0 -25.5 6t-21.5 15t-15 21t-6 24zM867 1704q0 28 19.5 48.5t47.5 20.5q26 0 47 -20.5t21 -48.5q0 -26 -21 -46t-47 -20q-28 0 -47.5 20t-19.5 46z" />
<glyph unicode="&#xdd;" d="M31 0zM31 1440h48q9 0 14 -3.5t10 -12.5l456 -714q10 -17 19 -34t16 -33q7 17 15.5 33t19.5 34l455 714q8 15 24 16h49l-534 -835v-605h-58v605zM504 1576l278 286q10 11 20.5 14.5t30.5 3.5h69l-337 -295q-10 -9 -27 -9h-34z" />
<glyph unicode="&#xde;" horiz-adv-x="1160" d="M228 0v1440h57v-302h287q244 0 370.5 -104.5t126.5 -313.5q0 -91 -35.5 -168.5t-101 -133.5t-157 -87t-203.5 -31h-287v-300h-57zM285 346h287q101 0 183 28.5t138.5 79t87.5 119t31 147.5q0 182 -109.5 277.5t-330.5 95.5h-287v-747z" />
<glyph unicode="&#xdf;" horiz-adv-x="1104" d="M180 0v1031q0 102 33 181t90 133t136 82t170 28q78 0 141 -23t106.5 -61.5t67 -87t23.5 -99.5q0 -65 -25 -113t-63.5 -86t-82.5 -68t-82.5 -60t-63.5 -62t-25 -73q0 -40 18 -66t46.5 -45.5t65.5 -34t76 -30t76 -34.5t65.5 -49t46.5 -72.5t18 -102.5q0 -65 -23.5 -120.5 t-67 -96t-106 -64t-140.5 -23.5q-53 0 -96 8.5t-80 24.5t-69.5 38.5t-62.5 49.5l12 18q5 5 8.5 7.5t10.5 2.5q10 0 29 -17t51 -37.5t80.5 -37t119.5 -16.5q69 0 121.5 20t89 54.5t55.5 81.5t19 101q0 75 -31 118.5t-77 71t-100 46t-100.5 41.5t-77 58.5t-30.5 98.5 q0 47 25.5 83.5t64 68t83.5 61.5t83.5 67t64 82.5t25.5 107.5q0 31 -15 70.5t-49 74.5t-89.5 59t-136.5 24q-74 0 -142 -22t-119 -68.5t-82 -119t-31 -174.5v-1030h-54z" />
<glyph unicode="&#xe0;" horiz-adv-x="977" d="M97 0zM97 240q0 67 38.5 121t119.5 93.5t205 62.5t295 27v120q0 152 -65.5 235.5t-194.5 83.5q-77 0 -132.5 -22t-92.5 -49t-59 -49t-33 -22q-10 0 -18 11l-9 14q76 78 158.5 119t189.5 41q79 0 137 -25t96.5 -72t57 -114t18.5 -151v-664h-18q-20 0 -24 22l-10 148 q-42 -43 -84.5 -77.5t-89 -58.5t-101 -37t-120.5 -13q-48 0 -95 14t-85 45t-61 79.5t-23 117.5zM150 242q0 -56 18.5 -97.5t50 -68.5t71.5 -39.5t82 -12.5q66 0 120 14.5t100 40t86 60t77 73.5v293q-309 -10 -457 -77t-148 -186zM302 1456h55q20 0 30 -5.5t20 -20.5 l165 -243h-31q-16 0 -26 12z" />
<glyph unicode="&#xe1;" horiz-adv-x="977" d="M97 0zM97 240q0 67 38.5 121t119.5 93.5t205 62.5t295 27v120q0 152 -65.5 235.5t-194.5 83.5q-77 0 -132.5 -22t-92.5 -49t-59 -49t-33 -22q-10 0 -18 11l-9 14q76 78 158.5 119t189.5 41q79 0 137 -25t96.5 -72t57 -114t18.5 -151v-664h-18q-20 0 -24 22l-10 148 q-42 -43 -84.5 -77.5t-89 -58.5t-101 -37t-120.5 -13q-48 0 -95 14t-85 45t-61 79.5t-23 117.5zM150 242q0 -56 18.5 -97.5t50 -68.5t71.5 -39.5t82 -12.5q66 0 120 14.5t100 40t86 60t77 73.5v293q-309 -10 -457 -77t-148 -186zM406 1187l166 243q10 15 19 20.5t30 5.5h55 l-213 -257q-9 -12 -24 -12h-33z" />
<glyph unicode="&#xe2;" horiz-adv-x="977" d="M97 0zM97 240q0 67 38.5 121t119.5 93.5t205 62.5t295 27v120q0 152 -65.5 235.5t-194.5 83.5q-77 0 -132.5 -22t-92.5 -49t-59 -49t-33 -22q-10 0 -18 11l-9 14q76 78 158.5 119t189.5 41q79 0 137 -25t96.5 -72t57 -114t18.5 -151v-664h-18q-20 0 -24 22l-10 148 q-42 -43 -84.5 -77.5t-89 -58.5t-101 -37t-120.5 -13q-48 0 -95 14t-85 45t-61 79.5t-23 117.5zM150 242q0 -56 18.5 -97.5t50 -68.5t71.5 -39.5t82 -12.5q66 0 120 14.5t100 40t86 60t77 73.5v293q-309 -10 -457 -77t-148 -186zM239 1198l219 242h45l219 -242h-38 q-11 0 -21 10l-174 189l-4 4l-4 4l-8 -8l-174 -189q-10 -10 -21 -10h-39z" />
<glyph unicode="&#xe3;" horiz-adv-x="977" d="M97 0zM97 240q0 67 38.5 121t119.5 93.5t205 62.5t295 27v120q0 152 -65.5 235.5t-194.5 83.5q-77 0 -132.5 -22t-92.5 -49t-59 -49t-33 -22q-10 0 -18 11l-9 14q76 78 158.5 119t189.5 41q79 0 137 -25t96.5 -72t57 -114t18.5 -151v-664h-18q-20 0 -24 22l-10 148 q-42 -43 -84.5 -77.5t-89 -58.5t-101 -37t-120.5 -13q-48 0 -95 14t-85 45t-61 79.5t-23 117.5zM150 242q0 -56 18.5 -97.5t50 -68.5t71.5 -39.5t82 -12.5q66 0 120 14.5t100 40t86 60t77 73.5v293q-309 -10 -457 -77t-148 -186zM239 1249q0 32 8.5 59.5t25.5 48t41.5 33 t56.5 12.5q34 0 63.5 -18t56.5 -39.5t53.5 -39.5t55.5 -18q48 0 72 31.5t26 80.5h33q0 -32 -8 -59.5t-24 -48t-40.5 -32.5t-57.5 -12q-34 0 -63 18t-56 39t-54 39t-56 18q-46 0 -70.5 -32.5t-26.5 -79.5h-36z" />
<glyph unicode="&#xe4;" horiz-adv-x="977" d="M97 0zM97 240q0 67 38.5 121t119.5 93.5t205 62.5t295 27v120q0 152 -65.5 235.5t-194.5 83.5q-77 0 -132.5 -22t-92.5 -49t-59 -49t-33 -22q-10 0 -18 11l-9 14q76 78 158.5 119t189.5 41q79 0 137 -25t96.5 -72t57 -114t18.5 -151v-664h-18q-20 0 -24 22l-10 148 q-42 -43 -84.5 -77.5t-89 -58.5t-101 -37t-120.5 -13q-48 0 -95 14t-85 45t-61 79.5t-23 117.5zM150 242q0 -56 18.5 -97.5t50 -68.5t71.5 -39.5t82 -12.5q66 0 120 14.5t100 40t86 60t77 73.5v293q-309 -10 -457 -77t-148 -186zM240 1313q0 28 20 47.5t48 19.5 q27 0 47.5 -19.5t20.5 -47.5q0 -27 -21 -47t-47 -20q-28 0 -48 20t-20 47zM585 1313q0 28 20.5 47.5t48.5 19.5q27 0 47 -19.5t20 -47.5q0 -27 -20.5 -47t-46.5 -20q-28 0 -48.5 20t-20.5 47z" />
<glyph unicode="&#xe5;" horiz-adv-x="977" d="M97 0zM97 240q0 67 38.5 121t119.5 93.5t205 62.5t295 27v120q0 152 -65.5 235.5t-194.5 83.5q-77 0 -132.5 -22t-92.5 -49t-59 -49t-33 -22q-10 0 -18 11l-9 14q76 78 158.5 119t189.5 41q79 0 137 -25t96.5 -72t57 -114t18.5 -151v-664h-18q-20 0 -24 22l-10 148 q-42 -43 -84.5 -77.5t-89 -58.5t-101 -37t-120.5 -13q-48 0 -95 14t-85 45t-61 79.5t-23 117.5zM150 242q0 -56 18.5 -97.5t50 -68.5t71.5 -39.5t82 -12.5q66 0 120 14.5t100 40t86 60t77 73.5v293q-309 -10 -457 -77t-148 -186zM319 1326q0 34 12.5 62t34.5 49t51.5 33 t63.5 12t63 -12t51 -33t34.5 -49t12.5 -62t-12.5 -62t-34.5 -49t-51.5 -33t-62.5 -12q-34 0 -63.5 12t-51.5 33t-34.5 49t-12.5 62zM357 1326q0 -54 34.5 -89.5t89.5 -35.5q54 0 89 35.5t35 89.5q0 27 -9.5 49.5t-26 39.5t-39.5 26t-49 9q-27 0 -50 -9t-39.5 -26 t-25.5 -39.5t-9 -49.5z" />
<glyph unicode="&#xe6;" horiz-adv-x="1631" d="M101 259q0 67 38.5 124t118.5 100t204 69.5t295 30.5v81q0 152 -65.5 236t-194.5 84q-77 0 -132.5 -22.5t-92 -49t-59 -49t-33.5 -22.5q-10 0 -18 11l-9 14q76 78 157 119t188 41q68 0 120 -20t88 -58t57.5 -92.5t29.5 -123.5q20 68 54.5 122t81.5 92.5t106 59t131 20.5 q74 0 138.5 -29.5t113 -87.5t76.5 -143.5t28 -198.5q0 -22 -17 -21h-698v-21q0 -121 26 -213t74 -154.5t115.5 -94.5t149.5 -32q74 0 127.5 18t89 39.5t55.5 39t27 17.5q8 0 14 -7l12 -14q-18 -26 -52 -50.5t-77.5 -43.5t-94 -30.5t-104.5 -11.5q-144 0 -242 83t-137 239 q-13 -92 -55.5 -154.5t-98.5 -101t-119.5 -54.5t-119.5 -16q-60 0 -114 14.5t-94.5 47.5t-64 85t-23.5 128zM154 261q0 -63 18.5 -108t52.5 -74t80 -42t101 -13q73 0 136.5 25t111 71.5t75.5 113.5t28 151v159q-155 -5 -268.5 -27t-188 -59t-110.5 -87t-36 -110zM809 582 h666q0 98 -24.5 173t-66 126.5t-97.5 77.5t-121 26q-80 0 -143.5 -29t-109 -82t-72 -127.5t-32.5 -164.5z" />
<glyph unicode="&#xe7;" horiz-adv-x="959" d="M118 505q0 117 30 213t87.5 164t140.5 106t189 38q94 0 168 -30t127 -80l-13 -17q-3 -3 -6 -5.5t-8 -2.5q-8 0 -25.5 14.5t-48.5 31.5t-78 31.5t-114 14.5q-94 0 -167 -33.5t-124 -95.5t-77.5 -150.5t-26.5 -198.5q0 -114 27 -202.5t77 -149t120 -92t156 -31.5 q78 0 130.5 18t87.5 40t53.5 39.5t26.5 17.5t13 -6l13 -15q-17 -25 -47 -48t-68.5 -41.5t-85.5 -30.5t-100 -15l-28 -94q44 -7 80 -17.5t60.5 -26t37.5 -38t13 -53.5q0 -60 -48 -93.5t-123 -33.5q-42 0 -82.5 14t-64.5 36l6 14q6 8 13 8q4 0 13.5 -6.5t25 -14.5t38 -14 t54.5 -6q58 0 90.5 25t32.5 69q0 30 -14.5 49t-40.5 31t-60.5 19t-74.5 12l38 119q-95 1 -173.5 36t-134 102t-85.5 162t-30 217z" />
<glyph unicode="&#xe8;" horiz-adv-x="1060" d="M118 0zM118 525q0 111 30 202.5t87.5 158t140.5 103.5t188 37q82 0 153 -28.5t124.5 -84.5t83.5 -138t30 -187q0 -22 -18 -22h-765q-1 -10 -1 -20v-21q0 -121 28.5 -213t81 -154.5t126.5 -94.5t165 -32q81 0 140.5 18t99.5 39.5t62 39t28 17.5q8 0 13 -6l14 -15 q-20 -26 -57 -50.5t-85 -43.5t-103.5 -30.5t-114.5 -11.5q-103 0 -186.5 36t-142.5 105t-90.5 168.5t-31.5 227.5zM175 602h731q0 91 -26 162.5t-71.5 120.5t-108 74.5t-135.5 25.5q-86 0 -154 -27.5t-117 -78t-79.5 -121t-39.5 -156.5zM385 1456h55q20 0 30 -5.5t20 -20.5 l165 -243h-31q-16 0 -26 12z" />
<glyph unicode="&#xe9;" horiz-adv-x="1060" d="M118 0zM118 525q0 111 30 202.5t87.5 158t140.5 103.5t188 37q82 0 153 -28.5t124.5 -84.5t83.5 -138t30 -187q0 -22 -18 -22h-765q-1 -10 -1 -20v-21q0 -121 28.5 -213t81 -154.5t126.5 -94.5t165 -32q81 0 140.5 18t99.5 39.5t62 39t28 17.5q8 0 13 -6l14 -15 q-20 -26 -57 -50.5t-85 -43.5t-103.5 -30.5t-114.5 -11.5q-103 0 -186.5 36t-142.5 105t-90.5 168.5t-31.5 227.5zM175 602h731q0 91 -26 162.5t-71.5 120.5t-108 74.5t-135.5 25.5q-86 0 -154 -27.5t-117 -78t-79.5 -121t-39.5 -156.5zM489 1187l166 243q10 15 19 20.5 t30 5.5h55l-213 -257q-9 -12 -24 -12h-33z" />
<glyph unicode="&#xea;" horiz-adv-x="1060" d="M118 0zM118 525q0 111 30 202.5t87.5 158t140.5 103.5t188 37q82 0 153 -28.5t124.5 -84.5t83.5 -138t30 -187q0 -22 -18 -22h-765q-1 -10 -1 -20v-21q0 -121 28.5 -213t81 -154.5t126.5 -94.5t165 -32q81 0 140.5 18t99.5 39.5t62 39t28 17.5q8 0 13 -6l14 -15 q-20 -26 -57 -50.5t-85 -43.5t-103.5 -30.5t-114.5 -11.5q-103 0 -186.5 36t-142.5 105t-90.5 168.5t-31.5 227.5zM175 602h731q0 91 -26 162.5t-71.5 120.5t-108 74.5t-135.5 25.5q-86 0 -154 -27.5t-117 -78t-79.5 -121t-39.5 -156.5zM322 1198l219 242h45l219 -242h-38 q-11 0 -21 10l-174 189l-4 4l-4 4l-8 -8l-174 -189q-10 -10 -21 -10h-39z" />
<glyph unicode="&#xeb;" horiz-adv-x="1060" d="M118 0zM118 525q0 111 30 202.5t87.5 158t140.5 103.5t188 37q82 0 153 -28.5t124.5 -84.5t83.5 -138t30 -187q0 -22 -18 -22h-765q-1 -10 -1 -20v-21q0 -121 28.5 -213t81 -154.5t126.5 -94.5t165 -32q81 0 140.5 18t99.5 39.5t62 39t28 17.5q8 0 13 -6l14 -15 q-20 -26 -57 -50.5t-85 -43.5t-103.5 -30.5t-114.5 -11.5q-103 0 -186.5 36t-142.5 105t-90.5 168.5t-31.5 227.5zM175 602h731q0 91 -26 162.5t-71.5 120.5t-108 74.5t-135.5 25.5q-86 0 -154 -27.5t-117 -78t-79.5 -121t-39.5 -156.5zM323 1313q0 28 20 47.5t48 19.5 q27 0 47.5 -19.5t20.5 -47.5q0 -27 -21 -47t-47 -20q-28 0 -48 20t-20 47zM668 1313q0 28 20.5 47.5t48.5 19.5q27 0 47 -19.5t20 -47.5q0 -27 -20.5 -47t-46.5 -20q-28 0 -48.5 20t-20.5 47z" />
<glyph unicode="&#xec;" horiz-adv-x="438" d="M42 0zM42 1456h55q20 0 30 -5.5t20 -20.5l165 -243h-31q-16 0 -26 12zM193 0v1010h53v-1010h-53z" />
<glyph unicode="&#xed;" horiz-adv-x="438" d="M145 0zM146 1187l166 243q10 15 19 20.5t30 5.5h55l-213 -257q-9 -12 -24 -12h-33zM193 0v1010h53v-1010h-53z" />
<glyph unicode="&#xee;" horiz-adv-x="438" d="M-21 1198l219 242h45l219 -242h-38q-11 0 -21 10l-174 189l-4 4l-4 4l-8 -8l-174 -189q-10 -10 -21 -10h-39zM0 0zM193 0v1010h53v-1010h-53z" />
<glyph unicode="&#xef;" horiz-adv-x="438" d="M19 0zM20 1313q0 28 20 47.5t47 19.5t48 -19.5t21 -47.5q0 -27 -21 -47t-48 -20q-28 0 -47.5 20t-19.5 47zM193 0v1010h53v-1010h-53zM285 1313q0 28 20.5 47.5t48.5 19.5q27 0 47 -19.5t20 -47.5q0 -27 -20.5 -47t-46.5 -20q-28 0 -48.5 20t-20.5 47z" />
<glyph unicode="&#xf0;" horiz-adv-x="1142" d="M119 461q0 99 29 186.5t85 152.5t137.5 102.5t186.5 37.5q55 0 114 -16t113.5 -49.5t100.5 -86.5t76 -128q-5 108 -28 196t-60.5 159.5t-88.5 126.5t-111 97l-158 -155l-9 14q-6 6 -6.5 13.5t7.5 13.5l136 133q-68 42 -144 69t-158 41q-7 2 -14.5 8t-2.5 19l5 18 q90 -14 178 -44t168 -81l147 147l11 -15q9 -14 -6 -29l-122 -122q66 -46 121 -108.5t95 -143.5t62.5 -182t22.5 -225q0 -138 -28 -252.5t-83.5 -196.5t-141 -127t-200.5 -45q-89 0 -168.5 32.5t-138.5 94t-93 148.5t-34 197zM173 460q0 -101 30.5 -180.5t83 -134.5t121 -84 t145.5 -29q98 0 172 39t124 110t77 171t30 220q-14 56 -45 114t-80 105.5t-115.5 76.5t-151.5 29q-97 0 -170 -34t-122.5 -92.5t-74 -138.5t-24.5 -172z" />
<glyph unicode="&#xf1;" horiz-adv-x="1118" d="M180 0v1010h26q19 0 20 -21l6 -175q71 97 168.5 154.5t213.5 57.5q84 0 147 -26t104.5 -74.5t62.5 -119.5t21 -160v-646h-54v646q0 79 -17.5 141.5t-54 106t-90.5 66.5t-128 23q-111 0 -205 -58t-166 -160v-765h-54zM180 0zM318 1249q0 32 8.5 59.5t25.5 48t41.5 33 t56.5 12.5q34 0 63.5 -18t56.5 -39.5t53.5 -39.5t55.5 -18q48 0 72 31.5t26 80.5h33q0 -32 -8 -59.5t-24 -48t-40.5 -32.5t-57.5 -12q-34 0 -63 18t-56 39t-54 39t-56 18q-46 0 -70.5 -32.5t-26.5 -79.5h-36z" />
<glyph unicode="&#xf2;" horiz-adv-x="1133" d="M118 0zM118 505q0 118 29.5 214t87 164t140.5 105.5t191 37.5t191.5 -37.5t140.5 -105.5t87 -164t30 -214t-30 -213.5t-87 -163.5t-140.5 -104t-191.5 -36t-191 36t-140.5 104t-87 163.5t-29.5 213.5zM172 505q0 -108 24.5 -195t74.5 -149.5t123.5 -96t171.5 -33.5 t172 33.5t123.5 96t74.5 149.5t25 195t-25 195.5t-74.5 150.5t-123 97.5t-172.5 34.5q-98 0 -171.5 -34.5t-123.5 -97.5t-74.5 -151t-24.5 -195zM390 1456h55q20 0 30 -5.5t20 -20.5l165 -243h-31q-16 0 -26 12z" />
<glyph unicode="&#xf3;" horiz-adv-x="1133" d="M118 0zM118 505q0 118 29.5 214t87 164t140.5 105.5t191 37.5t191.5 -37.5t140.5 -105.5t87 -164t30 -214t-30 -213.5t-87 -163.5t-140.5 -104t-191.5 -36t-191 36t-140.5 104t-87 163.5t-29.5 213.5zM172 505q0 -108 24.5 -195t74.5 -149.5t123.5 -96t171.5 -33.5 t172 33.5t123.5 96t74.5 149.5t25 195t-25 195.5t-74.5 150.5t-123 97.5t-172.5 34.5q-98 0 -171.5 -34.5t-123.5 -97.5t-74.5 -151t-24.5 -195zM494 1187l166 243q10 15 19 20.5t30 5.5h55l-213 -257q-9 -12 -24 -12h-33z" />
<glyph unicode="&#xf4;" horiz-adv-x="1133" d="M118 0zM118 505q0 118 29.5 214t87 164t140.5 105.5t191 37.5t191.5 -37.5t140.5 -105.5t87 -164t30 -214t-30 -213.5t-87 -163.5t-140.5 -104t-191.5 -36t-191 36t-140.5 104t-87 163.5t-29.5 213.5zM172 505q0 -108 24.5 -195t74.5 -149.5t123.5 -96t171.5 -33.5 t172 33.5t123.5 96t74.5 149.5t25 195t-25 195.5t-74.5 150.5t-123 97.5t-172.5 34.5q-98 0 -171.5 -34.5t-123.5 -97.5t-74.5 -151t-24.5 -195zM327 1198l219 242h45l219 -242h-38q-11 0 -21 10l-174 189l-4 4l-4 4l-8 -8l-174 -189q-10 -10 -21 -10h-39z" />
<glyph unicode="&#xf5;" horiz-adv-x="1133" d="M118 0zM118 505q0 118 29.5 214t87 164t140.5 105.5t191 37.5t191.5 -37.5t140.5 -105.5t87 -164t30 -214t-30 -213.5t-87 -163.5t-140.5 -104t-191.5 -36t-191 36t-140.5 104t-87 163.5t-29.5 213.5zM172 505q0 -108 24.5 -195t74.5 -149.5t123.5 -96t171.5 -33.5 t172 33.5t123.5 96t74.5 149.5t25 195t-25 195.5t-74.5 150.5t-123 97.5t-172.5 34.5q-98 0 -171.5 -34.5t-123.5 -97.5t-74.5 -151t-24.5 -195zM327 1249q0 32 8.5 59.5t25.5 48t41.5 33t56.5 12.5q34 0 63.5 -18t56.5 -39.5t53.5 -39.5t55.5 -18q48 0 72 31.5t26 80.5h33 q0 -32 -8 -59.5t-24 -48t-40.5 -32.5t-57.5 -12q-34 0 -63 18t-56 39t-54 39t-56 18q-46 0 -70.5 -32.5t-26.5 -79.5h-36z" />
<glyph unicode="&#xf6;" horiz-adv-x="1133" d="M118 0zM118 505q0 118 29.5 214t87 164t140.5 105.5t191 37.5t191.5 -37.5t140.5 -105.5t87 -164t30 -214t-30 -213.5t-87 -163.5t-140.5 -104t-191.5 -36t-191 36t-140.5 104t-87 163.5t-29.5 213.5zM172 505q0 -108 24.5 -195t74.5 -149.5t123.5 -96t171.5 -33.5 t172 33.5t123.5 96t74.5 149.5t25 195t-25 195.5t-74.5 150.5t-123 97.5t-172.5 34.5q-98 0 -171.5 -34.5t-123.5 -97.5t-74.5 -151t-24.5 -195zM328 1313q0 28 20 47.5t48 19.5q27 0 47.5 -19.5t20.5 -47.5q0 -27 -21 -47t-47 -20q-28 0 -48 20t-20 47zM673 1313 q0 28 20.5 47.5t48.5 19.5q27 0 47 -19.5t20 -47.5q0 -27 -20.5 -47t-46.5 -20q-28 0 -48.5 20t-20.5 47z" />
<glyph unicode="&#xf7;" d="M118 666v42h950v-42h-950zM515 319q0 33 22 56t55 23t56 -23t23 -56t-23 -54.5t-56 -21.5t-55 21.5t-22 54.5zM515 1049q0 33 22 55.5t55 22.5t56 -23t23 -55q0 -33 -23 -55t-56 -22t-55 22t-22 55z" />
<glyph unicode="&#xf8;" horiz-adv-x="1130" d="M118 505q0 118 29.5 214t87 164t141 105.5t190.5 37.5q94 0 169.5 -28.5t130.5 -82.5l101 135q7 10 13 14.5t18 4.5h31l-135 -181q59 -69 90 -165.5t31 -217.5q0 -118 -30 -213.5t-87 -163.5t-140.5 -104t-191.5 -36q-169 0 -278 88l-99 -132q-8 -11 -18 -15.5t-20 -4.5 h-25l133 177q-70 68 -105.5 170.5t-35.5 233.5zM170 505q0 -118 29 -210.5t88 -155.5l552 740q-49 51 -117.5 78t-155.5 27q-98 0 -172.5 -35t-124 -98t-74.5 -150.5t-25 -195.5zM315 113q48 -40 110 -61.5t141 -21.5q98 0 172.5 34t124 96t75 149.5t25.5 195.5t-24.5 194.5 t-73.5 149.5z" />
<glyph unicode="&#xf9;" horiz-adv-x="1116" d="M169 0zM169 364v646h54v-646q0 -79 17.5 -141.5t54 -106t91 -66.5t128.5 -23q110 0 203.5 57.5t167.5 160.5v765h53v-1010h-25q-18 0 -21 20l-5 176q-72 -97 -169 -154.5t-214 -57.5q-84 0 -147 26t-104.5 74.5t-62.5 119t-21 160.5zM382 1456h55q20 0 30 -5.5t20 -20.5 l165 -243h-31q-16 0 -26 12z" />
<glyph unicode="&#xfa;" horiz-adv-x="1116" d="M169 0zM169 364v646h54v-646q0 -79 17.5 -141.5t54 -106t91 -66.5t128.5 -23q110 0 203.5 57.5t167.5 160.5v765h53v-1010h-25q-18 0 -21 20l-5 176q-72 -97 -169 -154.5t-214 -57.5q-84 0 -147 26t-104.5 74.5t-62.5 119t-21 160.5zM486 1187l166 243q10 15 19 20.5 t30 5.5h55l-213 -257q-9 -12 -24 -12h-33z" />
<glyph unicode="&#xfb;" horiz-adv-x="1116" d="M169 0zM169 364v646h54v-646q0 -79 17.5 -141.5t54 -106t91 -66.5t128.5 -23q110 0 203.5 57.5t167.5 160.5v765h53v-1010h-25q-18 0 -21 20l-5 176q-72 -97 -169 -154.5t-214 -57.5q-84 0 -147 26t-104.5 74.5t-62.5 119t-21 160.5zM319 1198l219 242h45l219 -242h-38 q-11 0 -21 10l-174 189l-4 4l-4 4l-8 -8l-174 -189q-10 -10 -21 -10h-39z" />
<glyph unicode="&#xfc;" horiz-adv-x="1116" d="M169 0zM169 364v646h54v-646q0 -79 17.5 -141.5t54 -106t91 -66.5t128.5 -23q110 0 203.5 57.5t167.5 160.5v765h53v-1010h-25q-18 0 -21 20l-5 176q-72 -97 -169 -154.5t-214 -57.5q-84 0 -147 26t-104.5 74.5t-62.5 119t-21 160.5zM320 1313q0 28 20 47.5t48 19.5 q27 0 47.5 -19.5t20.5 -47.5q0 -27 -21 -47t-47 -20q-28 0 -48 20t-20 47zM665 1313q0 28 20.5 47.5t48.5 19.5q27 0 47 -19.5t20 -47.5q0 -27 -20.5 -47t-46.5 -20q-28 0 -48.5 20t-20.5 47z" />
<glyph unicode="&#xfd;" horiz-adv-x="1012" d="M50 0zM50 1010h41q11 0 18 -6.5t9 -12.5l377 -864q8 -22 15 -47q7 22 17 47l375 864q4 8 11 13.5t15 5.5h38l-589 -1349q-5 -10 -12.5 -18.5t-20.5 -8.5h-36l174 391zM461 1187l166 243q10 15 19 20.5t30 5.5h55l-213 -257q-9 -12 -24 -12h-33z" />
<glyph unicode="&#xfe;" horiz-adv-x="1119" d="M180 -366v1847h54v-666q68 97 161 154t206 57q191 0 295 -127t104 -388q0 -111 -28 -206t-83.5 -165.5t-138 -111t-191.5 -40.5q-214 0 -325 169v-523h-54zM234 209q62 -98 139.5 -138.5t177.5 -40.5q99 0 173 36t123 100.5t73.5 153t24.5 191.5q0 241 -91 356.5 t-264 115.5q-106 0 -197 -59t-159 -161v-554z" />
<glyph unicode="&#xff;" horiz-adv-x="1012" d="M50 0zM50 1010h41q11 0 18 -6.5t9 -12.5l377 -864q8 -22 15 -47q7 22 17 47l375 864q4 8 11 13.5t15 5.5h38l-589 -1349q-5 -10 -12.5 -18.5t-20.5 -8.5h-36l174 391zM295 1313q0 28 20 47.5t48 19.5q27 0 47.5 -19.5t20.5 -47.5q0 -27 -21 -47t-47 -20q-28 0 -48 20 t-20 47zM640 1313q0 28 20.5 47.5t48.5 19.5q27 0 47 -19.5t20 -47.5q0 -27 -20.5 -47t-46.5 -20q-28 0 -48.5 20t-20.5 47z" />
<glyph unicode="&#x152;" horiz-adv-x="2266" d="M134 720q0 168 44.5 304t124.5 232t191.5 148t245.5 52q104 0 194.5 -30t163 -87t126 -138.5t85.5 -184.5v424h843v-48h-792v-638h668v-47h-668v-659h794l-2 -48h-843v424q-32 -103 -85.5 -184t-126 -137t-162.5 -85.5t-195 -29.5q-134 0 -245.5 51t-191.5 146 t-124.5 230.5t-44.5 304.5zM191 720q0 -161 41 -288t115 -215.5t176 -135t225 -46.5q124 0 225.5 46.5t175 135t114 215.5t40.5 288t-40.5 289t-114 217t-175.5 136t-225 47t-225 -47t-176 -136t-115 -217t-41 -289z" />
<glyph unicode="&#x153;" horiz-adv-x="1777" d="M119 505q0 118 28 214t81.5 164t131 105.5t178.5 37.5q80 0 144 -24t114 -69t83 -109.5t51 -144.5q16 79 49 143t82 109.5t113 70t143 24.5q74 0 138 -29.5t111 -87.5t74 -143.5t27 -198.5q0 -22 -16 -21h-694v-21q0 -121 26.5 -213t74.5 -154.5t115 -94.5t150 -32 q72 0 125 18t89.5 39.5t57 39t27.5 17.5q8 0 13 -6l13 -15q-18 -26 -52 -50.5t-77.5 -43.5t-94.5 -30.5t-104 -11.5q-152 0 -252 91.5t-135 263.5q-16 -83 -49.5 -148.5t-83.5 -111.5t-116.5 -70.5t-146.5 -24.5q-99 0 -177 36t-131.5 104t-81.5 163.5t-28 213.5zM173 505 q0 -108 23 -195t69 -149.5t115 -96t160 -33.5t159 33.5t113.5 96t68.5 149.5t23 195t-23 195.5t-68.5 150.5t-113.5 97.5t-159 34.5t-160 -34.5t-115 -97.5t-69 -151t-23 -195zM959 582h661q0 98 -23 173t-63.5 126.5t-96 77.5t-120.5 26q-80 0 -143.5 -29t-109 -82 t-72 -127.5t-33.5 -164.5z" />
<glyph unicode="&#x178;" d="M31 0zM31 1440h48q9 0 14 -3.5t10 -12.5l456 -714q10 -17 19 -34t16 -33q7 17 15.5 33t19.5 34l455 714q8 15 24 16h49l-534 -835v-605h-58v605zM332 1704q0 28 20.5 48.5t47.5 20.5t47.5 -20.5t20.5 -48.5q0 -26 -20.5 -46t-47.5 -20q-13 0 -25.5 6t-21.5 15t-15 21 t-6 24zM720 1704q0 28 19.5 48.5t47.5 20.5q26 0 47 -20.5t21 -48.5q0 -26 -21 -46t-47 -20q-28 0 -47.5 20t-19.5 46z" />
<glyph unicode="&#x2c6;" horiz-adv-x="819" d="M168 1198l219 242h45l219 -242h-38q-11 0 -21 10l-174 189l-4 4l-4 4l-8 -8l-174 -189q-10 -10 -21 -10h-39z" />
<glyph unicode="&#x2dc;" horiz-adv-x="819" d="M168 1249q0 32 8.5 59.5t25.5 48t41.5 33t56.5 12.5q34 0 63.5 -18t56.5 -39.5t53.5 -39.5t55.5 -18q48 0 72 31.5t26 80.5h33q0 -32 -8 -59.5t-24 -48t-40.5 -32.5t-57.5 -12q-34 0 -63 18t-56 39t-54 39t-56 18q-46 0 -70.5 -32.5t-26.5 -79.5h-36z" />
<glyph unicode="&#x2000;" horiz-adv-x="940" />
<glyph unicode="&#x2001;" horiz-adv-x="1880" />
<glyph unicode="&#x2002;" horiz-adv-x="940" />
<glyph unicode="&#x2003;" horiz-adv-x="1880" />
<glyph unicode="&#x2004;" horiz-adv-x="626" />
<glyph unicode="&#x2005;" horiz-adv-x="470" />
<glyph unicode="&#x2006;" horiz-adv-x="313" />
<glyph unicode="&#x2007;" horiz-adv-x="313" />
<glyph unicode="&#x2008;" horiz-adv-x="235" />
<glyph unicode="&#x2009;" horiz-adv-x="376" />
<glyph unicode="&#x200a;" horiz-adv-x="104" />
<glyph unicode="&#x2010;" horiz-adv-x="756" d="M147 582v45h461v-45h-461z" />
<glyph unicode="&#x2011;" horiz-adv-x="756" d="M147 582v45h461v-45h-461z" />
<glyph unicode="&#x2012;" horiz-adv-x="756" d="M147 582v45h461v-45h-461z" />
<glyph unicode="&#x2013;" d="M195 565v41h798v-41h-798z" />
<glyph unicode="&#x2014;" horiz-adv-x="1607" d="M148 565v41h1311v-41h-1311z" />
<glyph unicode="&#x2018;" horiz-adv-x="412" d="M151.5 1269q7.5 66 33.5 127t69 107l13 -10q8 -7 1 -17q-36 -48 -53 -104t-19 -112.5t9.5 -109.5t35.5 -94q5 -8 4 -15.5t-9 -11.5l-37 -16q-32 57 -43.5 123.5t-4 132.5z" />
<glyph unicode="&#x2019;" horiz-adv-x="410" d="M152 1057q-9 8 0 17q35 48 52 104t19.5 112.5t-9.5 109t-35 94.5q-5 8 -4.5 15.5t8.5 11.5l38 17q32 -57 43 -124t3.5 -133.5t-33 -127t-68.5 -105.5z" />
<glyph unicode="&#x201a;" horiz-adv-x="432" d="M153 -275q35 48 52 103.5t19.5 112t-9.5 109t-35 94.5q-5 8 -4.5 15.5t8.5 11.5l38 17q32 -57 43 -124t3.5 -133t-33 -127t-68.5 -106l-14 9q-9 8 0 18z" />
<glyph unicode="&#x201c;" horiz-adv-x="670" d="M144 1013zM151.5 1269q7.5 66 33.5 127t69 107l13 -10q8 -7 1 -17q-36 -48 -53 -104t-19 -112.5t9.5 -109.5t35.5 -94q5 -8 4 -15.5t-9 -11.5l-37 -16q-32 57 -43.5 123.5t-4 132.5zM409.5 1269q7.5 66 33.5 127t69 107l13 -10q8 -7 1 -17q-36 -48 -53 -104t-19 -112.5 t9.5 -109.5t35.5 -94q5 -8 4 -15.5t-9 -11.5l-37 -16q-32 57 -43.5 123.5t-4 132.5z" />
<glyph unicode="&#x201d;" horiz-adv-x="668" d="M142 1048zM152 1057q-9 8 0 18q35 48 52 103.5t19.5 112t-9.5 109t-35 94.5q-5 8 -4.5 15.5t8.5 11.5l38 17q32 -57 43 -124t3.5 -133t-33 -127t-68.5 -106zM410 1057q-9 8 0 18q35 48 52 103.5t19.5 112t-9.5 109t-35 94.5q-5 8 -4.5 15.5t8.5 11.5l38 17 q32 -57 43 -124t3.5 -133t-33 -127t-68.5 -106z" />
<glyph unicode="&#x201e;" horiz-adv-x="690" d="M143 0zM153 -275q35 48 52 103.5t19.5 112t-9.5 109t-35 94.5q-5 8 -4.5 15.5t8.5 11.5l38 17q32 -57 43 -124t3.5 -133t-33 -127t-68.5 -106l-14 9q-9 8 0 18zM411 -275q35 48 52 103.5t19.5 112t-9.5 109t-35 94.5q-5 8 -4.5 15.5t8.5 11.5l38 17q32 -57 43 -124 t3.5 -133t-33 -127t-68.5 -106l-14 9q-9 8 0 18z" />
<glyph unicode="&#x2022;" d="M335 611q0 54 20.5 102t55 83t82 55.5t99.5 20.5q54 0 101.5 -20.5t83 -55.5t56 -82.5t20.5 -102.5q0 -52 -20.5 -99t-56 -82t-83 -55.5t-101.5 -20.5q-52 0 -99.5 20.5t-82 55.5t-55 82t-20.5 99z" />
<glyph unicode="&#x2026;" horiz-adv-x="1456" d="M161 0zM161 60q0 33 22 56t55 23t55.5 -23t22.5 -56t-23 -54.5t-55 -21.5q-33 0 -55 21.5t-22 54.5zM650 60q0 33 22 56t55 23t55.5 -23t22.5 -56t-23 -54.5t-55 -21.5q-33 0 -55 21.5t-22 54.5zM1140 60q0 33 22 56t55 23t55.5 -23t22.5 -56t-23 -54.5t-55 -21.5 q-33 0 -55 21.5t-22 54.5z" />
<glyph unicode="&#x202f;" horiz-adv-x="376" />
<glyph unicode="&#x2039;" horiz-adv-x="539" d="M122 522v7l243 383l15 -9q19 -10 5 -34l-200 -318q-7 -11 -12 -17t-9 -9q9 -5 21 -24l200 -319q8 -11 5.5 -19.5t-10.5 -14.5l-15 -9z" />
<glyph unicode="&#x203a;" horiz-adv-x="541" d="M151 162q-3 9 6 20l199 319q6 11 11.5 16.5t9.5 7.5q-4 3 -9.5 9t-11.5 17l-199 318q-14 24 5 34l15 9l243 -383v-7l-243 -383l-15 9q-8 5 -11 14z" />
<glyph unicode="&#x205f;" horiz-adv-x="470" />
<glyph unicode="&#x20ac;" d="M17 592v36h174q-3 44 -3 92q0 28 1 55t4 53h-176v36h179q15 139 58.5 249t113 185.5t163.5 115.5t207 40q65 0 118.5 -10.5t100.5 -32t88 -54t80 -75.5l-15 -18q-4 -7 -13 -8q-9 0 -31 24t-62.5 52.5t-104 52t-159.5 23.5q-101 0 -185 -35.5t-147 -104.5t-103.5 -170.5 t-54.5 -233.5h645v-16q0 -8 -4.5 -14t-17.5 -6h-626q-2 -27 -3 -53.5t-1 -54.5v-47t2 -45h557v-17q0 -19 -22 -19h-532q12 -138 52 -243t102.5 -176.5t146.5 -107t185 -35.5q68 0 120 13t92 33.5t68.5 43.5t48.5 43.5t33 34t21 13.5q5 0 13 -8l18 -17q-37 -45 -79.5 -82 t-93 -64t-111.5 -41.5t-133 -14.5q-115 0 -208.5 39.5t-162 117.5t-111 191t-55.5 260h-177z" />
<glyph unicode="&#x2122;" horiz-adv-x="1514" d="M102 1403v37h475v-37h-215v-544h-44v544h-216zM720 859v581h32q7 0 10 -2t8 -7l248 -405l7 -17q2 4 3.5 8t4.5 9l241 405q5 9 16 9h32v-581h-37v496l2 28l-243 -411q-4 -10 -16 -10h-6q-13 0 -17 10l-249 409l4 -26v-496h-40z" />
<glyph unicode="&#x25fc;" horiz-adv-x="1008" d="M0 0v1009h1009v-1009h-1009z" />
</font>
</defs>
</svg>
