<?xml version="1.0" standalone="no"?>
<!DOCTYPE svg PUBLIC "-//W3C//DTD SVG 1.1//EN" "http://www.w3.org/Graphics/SVG/1.1/DTD/svg11.dtd" >
<svg xmlns="http://www.w3.org/2000/svg">
<metadata>Generated by IcoMoon</metadata>
<defs>
<font id="icomoon" horiz-adv-x="512">
<font-face units-per-em="512" ascent="480" descent="-32" />
<missing-glyph horiz-adv-x="512" />
<glyph unicode="&#x20;" d="" horiz-adv-x="256" />
<glyph unicode="&#xe600;" d="M662.928 477.328c-68.976-19.769-132.721-49.864-190.172-88.587v26.54c0 14.085-11.39 25.521-25.52 25.521h-421.76c-14.063 0-25.476-11.436-25.476-25.521v-421.783c0-14.063 11.413-25.498 25.476-25.498h421.76c14.13 0 25.52 11.435 25.52 25.498v281.226c51.924 41.712 112.205 73.415 180.57 92.957 54.688 15.647 84.986 131.227 9.601 109.647zM51.019 19.019v370.741h370.764v-39.153c-52.287-42.957-98.075-93.817-136.345-150.973-37.432 38.27-80.978 70.063-115.556 112.296-36.458 44.588-120.403-50.724-81.975-97.69 44.678-54.551 108.287-88.768 145.425-150.022 23.664-39.108 77.831-4.597 92.481 24.796 25.951 52.151 58.016 98.731 95.969 138.745v-208.74h-370.764z" horiz-adv-x="708" />
<glyph unicode="&#xe601;" d="M7.851 329.711c0 37.274 30.208 67.447 67.55 67.447 37.206 0 67.345-30.174 67.345-67.447s-30.139-67.413-67.345-67.413c-37.342 0-67.55 30.139-67.55 67.413zM306.517 266.599c-10.854 6.519-24.849 3.141-31.437-7.646l-45.022-73.83-63.454 35.464c-28.536 17.578-42.462 25.907-84.822 25.907h-12.903c-82.193-9.591-67.925-75.434-67.925-75.434l9.967-203.059 144.657 1.604-5.701 201.455 77.142-36.591c3.55-2.014 7.339-2.901 11.127-2.901 7.749 0 15.257 3.891 19.593 10.957l56.457 92.638c6.519 10.786 3.14 24.849-7.68 31.437zM123.802 273.596c-5.017-4.301-10.479-7.953-16.453-10.855v-10.649c5.974-0.683 11.434-1.673 16.453-3.038v24.542zM501.385 480h-394.035v-83.32c5.974-2.867 11.434-6.553 16.453-10.854v77.755h361.199v-247.091h-173.943l-10.001-16.418h200.328v279.928zM230.946 200.072l10.070 16.418h-52.6l29.389-16.418h13.142zM370.142 366.609l-7.919 4.54-55.159-96.154 7.987-4.574 55.091 96.188z" horiz-adv-x="502" />
<glyph unicode="&#xe602;" d="M367.719 248.412c-0.031 0.399-0.041 0.798-0.082 1.188-0.338 15.155-2.98 27.402-14.899 32.451-12.595 5.335-23.695 5.406-31.836 2.243-0.533-0.215-1.915-2.048-2.457-2.386-0.543-0.338-3.399 0.614-4.475 0.358-17.869-2.55-23.767-19.385-22.466-32.512 4.27-7.454 5.611-16.855 6.021-26.573 6.656-11.623 18.084-20.531 31.714-20.531 18.227 0 32.645 15.38 37.151 32.123 1.71 0.195 3.134 1.495 3.277 3.277l0.563 6.615c0.144 1.72-0.942 3.205-2.509 3.748zM329.226 207.769c-18.811 0-32.86 19.917-32.86 37.734 0 0.839 0.062 1.659 0.123 2.478 7.834 2.867 22.887 8.857 24.525 12.012 6.841-7.107 31.017-11.1 41.636-12.442 0.051-0.676 0.113-1.362 0.113-2.048-0.021-17.449-14.663-37.735-33.536-37.735zM125.604 244.808l0.563-6.615c0.164-1.863 1.7-3.215 3.523-3.308 4.393-16.784 18.576-32.236 36.547-32.236 14.101 0 25.856 9.236 32.573 21.145-0.143 8.325 2.048 16.875 6.799 23.952-0.297 0.215-0.512 0.532-0.87 0.655-0.030 0.399-0.041 0.798-0.082 1.188-0.338 15.155-2.98 27.402-14.899 32.451-12.595 5.335-23.696 5.406-31.836 2.243-0.532-0.215-1.915-2.048-2.458-2.386-0.542-0.338-3.399 0.615-4.475 0.359-17.869-2.55-23.767-19.394-22.466-32.522-0.041-0.369-0.061-0.738-0.092-1.106-1.751-0.42-2.99-1.997-2.826-3.82zM133.488 247.982c7.833 2.867 22.887 8.857 24.525 12.012 6.84-7.107 31.017-11.1 41.636-12.442 0.051-0.676 0.113-1.362 0.113-2.048 0-17.449-14.643-37.735-33.516-37.735-18.811 0-32.86 19.917-32.86 37.734-0.020 0.839 0.041 1.659 0.102 2.478zM221.655 364.175c2.673-10.209 11.294-19.609 22.231-19.609 11.090 0 19.845 9.359 22.6 19.538 1.045 0.123 1.904 0.911 1.997 1.997l0.338 4.024c0.092 1.055-0.574 1.956-1.515 2.284-0.021 0.236-0.021 0.481-0.051 0.717-0.205 9.216-1.813 16.661-9.063 19.743-7.67 3.246-14.418 3.297-19.374 1.362-0.327-0.133-1.167-1.25-1.495-1.454-0.327-0.205-2.069 0.368-2.724 0.215-10.864-1.546-14.448-11.786-13.66-19.784-0.030-0.215-0.041-0.451-0.061-0.676-1.054-0.256-1.802-1.219-1.71-2.325l0.348-4.024c0.092-1.136 1.034-1.956 2.14-2.007zM223.97 372.142c4.762 1.741 13.916 5.386 14.919 7.311 4.157-4.321 18.862-6.758 25.324-7.567 0.021-0.42 0.062-0.829 0.062-1.249 0-10.608-8.909-22.948-20.388-22.948-11.448 0-19.988 12.114-19.988 22.948 0 0.502 0.030 1.003 0.071 1.505zM171.97 364.913c-15.094-2.151-20.071-16.374-18.975-27.474-0.030-0.307-0.051-0.625-0.082-0.932-1.464-0.358-2.509-1.69-2.365-3.226l0.482-5.591c0.133-1.577 1.434-2.714 2.97-2.786 3.717-14.172 15.688-27.228 30.874-27.228 15.391 0 27.566 12.994 31.375 27.126 1.444 0.164 2.642 1.27 2.775 2.775l0.471 5.581c0.123 1.464-0.798 2.713-2.109 3.174-0.030 0.327-0.030 0.666-0.071 1.004-0.286 12.8-2.519 23.142-12.585 27.412-10.639 4.505-20.019 4.567-26.89 1.894-0.451-0.185-1.618-1.731-2.078-2.017-0.461-0.297-2.867 0.502-3.789 0.286zM177.92 346.102c5.775-6 26.194-9.38 35.164-10.506 0.041-0.573 0.092-1.147 0.092-1.731 0-14.736-12.37-31.867-28.314-31.867-15.893 0-27.75 16.824-27.75 31.867 0 0.707 0.051 1.403 0.102 2.089 6.615 2.416 19.323 7.486 20.706 10.148zM272.272 324.894c3.717-14.172 15.688-27.228 30.873-27.228 15.39 0 27.566 12.994 31.375 27.126 0.993 0.112 1.721 0.768 2.212 1.597l0.758 0.082c0.174 0.020 0.481 0.133 0.512 0.44l0.471 5.57c0.031 0.379-0.358 0.522-0.399 0.533l-0.317 0.113c0.123 1.464-0.798 2.714-2.11 3.175-0.031 0.327-0.031 0.665-0.072 1.003-0.286 12.8-2.519 23.142-12.585 27.412-10.639 4.506-20.019 4.567-26.89 1.894-0.45-0.184-1.618-1.731-2.079-2.017-0.45-0.276-2.867 0.512-3.779 0.297-15.094-2.151-20.070-16.374-18.974-27.474-0.031-0.307-0.051-0.625-0.082-0.932-1.464-0.358-2.509-1.69-2.365-3.226l0.481-5.591c0.144-1.557 1.433-2.703 2.969-2.775zM275.486 335.954c6.615 2.416 19.323 7.486 20.706 10.148 5.776-6 26.194-9.38 35.164-10.506 0.041-0.573 0.092-1.147 0.092-1.731 0-14.736-12.37-31.867-28.313-31.867-15.892 0-27.75 16.824-27.75 31.867 0.010 0.707 0.051 1.403 0.103 2.089zM218.317 322.745c-1.772-5.745-5.018-11.377-9.287-16.098l34.765-0.021v0.062l35.512 0.020c-4.178 4.7-7.342 10.322-9.083 16.046-1.915 0.778-3.277 2.55-3.461 4.7l-0.481 5.591c-0.185 2.058 0.778 3.973 2.416 5.1-0.174 1.966-0.092 3.994 0.113 6.021-2.068 2.13-4.485 3.635-7.404 4.055-0.574 0.092-1.137-0.041-1.505-0.195l-9.155-12.38-6.953 5.54-0.041-0.031v-0.030l-0.010 0.010-6.942-5.54-9.155 12.38c-0.369 0.143-0.932 0.276-1.495 0.184-2.621-0.368-4.823-1.649-6.758-3.43 0.246-2.284 0.41-4.588 0.471-6.871 1.495-1.147 2.345-2.99 2.181-4.925l-0.471-5.571c-0.185-2.078-1.444-3.789-3.256-4.618zM365.671 230.256c-2.683-6.85-7.117-13.251-12.759-17.982 5.735 4.793 10.148 11.213 12.759 17.982zM153.876 284.58c0.195-0.031 0.379-0.072 0.553-0.103 0.071 0.082 0.143 0.164 0.226 0.256 0.911 1.003 1.506 1.628 2.314 1.945 4.608 1.792 9.82 2.478 15.36 2.171l-10.014 13.548c-0.512 0.205-1.29 0.379-2.078 0.256-9.39-1.321-15.309-10.424-19.067-21.002 2.775 1.454 5.827 2.631 9.441 3.154l0.829 0.071c0.676-0.010 1.587-0.154 2.437-0.297zM197.837 213.678l0.696-8.141c0.195-2.294 2.089-3.963 4.332-4.065 5.406-20.654 22.856-39.68 44.974-39.68 22.436 0 40.172 18.934 45.711 39.526 2.11 0.246 3.85 1.853 4.045 4.045l0.697 8.13c0.185 2.12-1.157 3.952-3.082 4.608-0.041 0.481-0.051 0.983-0.103 1.464-0.409 18.647-3.656 33.721-18.34 39.936-15.503 6.564-29.163 6.656-39.178 2.765-0.655-0.256-2.355-2.519-3.021-2.939-0.666-0.409-4.178 0.748-5.509 0.43-21.986-3.133-29.245-23.859-27.648-40.018-0.041-0.45-0.082-0.901-0.113-1.362-2.14-0.512-3.666-2.447-3.461-4.7zM207.544 217.59c9.625 3.522 28.16 10.895 30.167 14.776 8.428-8.745 38.175-13.66 51.231-15.309 0.062-0.839 0.133-1.68 0.133-2.519 0-21.474-18.022-46.438-41.246-46.438-23.153 0-40.438 24.514-40.438 46.438 0 1.034 0.082 2.038 0.154 3.051zM194.396 285.286l-9.646 7.69-0.061-0.051v-0.051l-0.010 0.010-6.185-4.925c4.014-0.748 8.1-1.802 12.247-3.564 13.762-5.827 16.077-20.459 16.435-34.15 4.874 6.082 11.858 10.68 21.504 12.063l0.932 0.082c0.809 0 1.894-0.174 2.908-0.358 0.185-0.031 0.348-0.061 0.522-0.092-2.509 16.231-8.694 38.666-23.869 40.807-0.798 0.123-1.577-0.051-2.089-0.266l-12.688-17.193zM327.465 302.745c-0.798 0.123-1.577-0.051-2.089-0.266l-12.708-17.203-9.646 7.69-0.062-0.051v-0.051l-0.010 0.010-9.646-7.69-12.718 17.203c-0.512 0.205-1.29 0.379-2.079 0.256-13.527-1.904-19.927-19.958-22.928-35.358 7.086-0.43 14.592-2.222 22.18-5.427 4.741-2.007 8.325-4.854 11.090-8.274-0.092 13.722 7.209 28.693 24.75 31.202l0.829 0.071c0.676 0 1.587-0.143 2.447-0.297 0.195-0.031 0.379-0.072 0.553-0.103 0.072 0.082 0.144 0.164 0.226 0.256 0.911 1.003 1.505 1.628 2.314 1.945 6.994 2.724 15.39 2.969 24.218 0.85-3.769 7.966-9.113 14.162-16.722 15.237zM247.644 85.166l72.858 0.051c0 0-2.222 79.053-37.223 83.978-1.157 0.185-2.294-0.082-3.031-0.379l-18.524-25.058-14.060 11.213-0.082-0.072v-0.072l-0.020 0.021-14.059-11.213-18.524 25.067c-0.738 0.297-1.874 0.553-3.031 0.379-35-4.925-37.222-83.978-37.222-83.978l72.909-0.041v0.103zM329.063 140.37l59.207 0.041c0 0-1.802 64.236-30.249 68.25-0.942 0.144-1.863-0.062-2.468-0.307l-15.053-20.368-11.418 9.113-0.072-0.062v-0.062l-0.010 0.021-11.418-9.113-15.053 20.368c-0.512 0.205-1.31 0.297-2.099 0.256l-0.286-3.358c-0.226-2.745-2.007-4.997-4.526-5.939-3.594-12.063-11.591-23.952-22.498-31.611-0.379-1.863-0.707-3.687-1.003-5.478l6.502 8.796 0.666 0.276c0.727 0.297 2.488 0.839 4.382 0.533 14.582-2.058 23.726-15.647 29.522-31.447l15.872-0.010v0.103zM106.823 140.308l59.249-0.031v0.103l16.046 0.010c5.806 15.708 14.94 29.184 29.471 31.222 1.72 0.246 3.605-0.236 4.332-0.533l0.676-0.266 6.369-8.612c-0.338 2.058-0.717 4.158-1.167 6.318-10.127 7.68-17.582 19.108-20.992 30.75-2.662 0.85-4.588 3.185-4.833 6.062l-0.266 3.144c-0.236 0.041-0.43 0.154-0.676 0.195-0.942 0.144-1.863-0.062-2.468-0.307l-15.053-20.368-11.417 9.113-0.071-0.062v-0.062l-0.010 0.021-11.417-9.113-15.053 20.368c-0.604 0.236-1.526 0.45-2.468 0.297-28.447-4.004-30.249-68.25-30.249-68.25zM410.327 403.108l26.44 39.916-96.983-12.257 29.901-89.026 23.409 35.349c37.704-36.106 61.307-86.784 61.307-142.992 0-109.404-88.996-198.4-198.4-198.4s-198.4 88.996-198.4 198.4c0 81.152 49.019 150.979 118.958 181.678l-23.112 23.112c-74.967-37.704-126.567-115.313-126.567-204.8 0-126.331 102.789-229.12 229.12-229.12s229.12 102.789 229.12 229.12c0 66.908-28.908 127.099-74.793 169.022z" />
<glyph unicode="&#xe603;" d="M74.989 405.031c99.978 99.958 262.104 99.958 362.063 0 99.939-99.998 99.939-262.125 0-362.043-99.958-99.998-262.104-99.998-362.063 0-99.978 99.939-99.978 262.046 0 362.043zM133.238 63.272c88.793-67.84 215.749-50.846 283.51 37.888 55.394 72.546 55.394 173.135 0 245.642l-283.51-283.53zM378.762 384.788c-88.733 67.8-215.69 50.806-283.53-37.987-55.375-72.527-55.375-173.115 0-245.661l283.53 283.648zM370.747 187.786l-15.163 14.671c49.644 48.029 49.644 126.11-0.019 174.12l15.183 14.69c58.171-56.084 58.171-147.417 0-203.481zM329.236 227.88l15.222-14.73c43.618 42.142 43.618 110.632 0 152.714l-15.222-14.671c35.23-34.009 35.23-89.344 0-123.313zM317.341 239.399c28.613 27.629 28.613 72.625 0 100.293l-15.242-14.69c20.264-19.555 20.264-51.377 0-70.892l15.242-14.71zM151.119 376.596l-15.498 14.69c-59.096-56.084-59.096-147.417 0-203.481l15.478 14.671c-50.59 47.971-50.57 126.11 0.019 174.12zM162.383 213.149l15.478 14.73c-35.8 33.969-35.8 89.304 0 123.313l-15.478 14.671c-44.367-42.083-44.367-110.572 0-152.714zM189.992 239.399l15.458 14.71c-20.539 19.535-20.539 51.338 0.019 70.893l-15.478 14.69c-29.105-27.688-29.105-72.664 0-100.293zM321.497 97.772h-39.621l-23.749 171.421c11.067 1.398 19.673 10.752 19.673 22.173 0 12.426-10.122 22.489-22.567 22.489s-22.508-10.063-22.508-22.489c0-11.421 8.566-20.775 19.653-22.173l-23.749-171.421h-39.641c-9.354 0-16.935-7.64-16.935-16.896 0-9.373 7.601-16.916 16.935-16.916h132.589c9.315 0 16.896 7.582 16.896 16.916 0 9.255-7.582 16.896-16.975 16.896z" />
<glyph unicode="&#xe604;" d="M74.989 405.031c99.978 99.958 262.104 99.958 362.063 0 99.939-99.998 99.939-262.125 0-362.043-99.958-99.998-262.104-99.998-362.063 0-99.978 99.939-99.978 262.046 0 362.043zM133.238 63.272c88.793-67.84 215.749-50.846 283.51 37.888 55.394 72.546 55.394 173.135 0 245.642l-283.51-283.53zM378.762 384.788c-88.733 67.8-215.69 50.806-283.53-37.987-55.375-72.527-55.375-173.115 0-245.661l283.53 283.648zM370.747 187.786l-15.163 14.671c49.644 48.029 49.644 126.11-0.019 174.12l15.183 14.69c58.171-56.084 58.171-147.417 0-203.481zM329.236 227.88l15.222-14.73c43.618 42.142 43.618 110.632 0 152.714l-15.222-14.671c35.23-34.009 35.23-89.344 0-123.313zM317.341 239.399c28.613 27.629 28.613 72.625 0 100.293l-15.242-14.69c20.264-19.555 20.264-51.377 0-70.892l15.242-14.71zM151.119 376.596l-15.498 14.69c-59.096-56.084-59.096-147.417 0-203.481l15.478 14.671c-50.59 47.971-50.57 126.11 0.019 174.12zM162.383 213.149l15.478 14.73c-35.8 33.969-35.8 89.304 0 123.313l-15.478 14.671c-44.367-42.083-44.367-110.572 0-152.714zM189.992 239.399l15.458 14.71c-20.539 19.535-20.539 51.338 0.019 70.893l-15.478 14.69c-29.105-27.688-29.105-72.664 0-100.293zM321.497 97.772h-39.621l-23.749 171.421c11.067 1.398 19.673 10.752 19.673 22.173 0 12.426-10.122 22.489-22.567 22.489s-22.508-10.063-22.508-22.489c0-11.421 8.566-20.775 19.653-22.173l-23.749-171.421h-39.641c-9.354 0-16.935-7.64-16.935-16.896 0-9.373 7.601-16.916 16.935-16.916h132.589c9.315 0 16.896 7.582 16.896 16.916 0 9.255-7.582 16.896-16.975 16.896z" />
<glyph unicode="&#xe605;" d="M333.813 252.388v38.222l-20.652 7.344c-7.875 2.799-14.211 8.814-17.41 16.535-0.002 0.002-0.004 0.006-0.004 0.010-3.211 7.738-2.986 16.475 0.609 24.041l9.408 19.789-27.029 27.027-19.783-9.404c-7.562-3.596-16.312-3.822-24.047-0.615-0.004 0.004-0.008 0.004-0.010 0.004-7.727 3.203-13.73 9.531-16.533 17.412l-7.344 20.654h-38.223l-7.346-20.654c-2.801-7.873-8.812-14.211-16.532-17.412-0.002 0-0.006-0.002-0.010-0.004-7.74-3.209-16.477-2.984-24.045 0.613l-19.785 9.406-27.029-27.027 9.406-19.785c3.596-7.562 3.82-16.312 0.613-24.049-0.002-0.002-0.002-0.004-0.006-0.010-3.201-7.723-9.529-13.729-17.408-16.531l-20.653-7.344v-38.223l20.654-7.344c7.873-2.801 14.209-8.814 17.41-16.533 0.002-0.004 0.002-0.008 0.004-0.010 3.209-7.74 2.984-16.477-0.611-24.045l-9.408-19.787 27.029-27.025 19.785 9.402c7.562 3.596 16.312 3.82 24.049 0.613 0.002-0.002 0.006-0.004 0.008-0.004 7.724-3.203 13.728-9.527 16.53-17.408l7.346-20.652h38.223l7.299 20.52c2.824 7.947 8.891 14.344 16.678 17.582 0.004 0.002 0.008 0.002 0.012 0.004 7.666 3.189 16.32 2.969 23.818-0.594l19.91-9.463 27.029 27.025-9.412 19.799c-3.592 7.555-3.814 16.295-0.609 24.023 0.002 0.004 0.004 0.006 0.004 0.010 3.207 7.732 9.539 13.742 17.426 16.547l20.639 7.341zM191.907 219.458c-28.742 0-52.042 23.301-52.042 52.041 0 28.742 23.3 52.043 52.042 52.043 28.74 0 52.041-23.301 52.041-52.043 0-28.74-23.301-52.041-52.041-52.041zM462 140.009v20.32l-10.979 3.902c-4.188 1.488-7.557 4.688-9.258 8.791-0.002 0-0.002 0.002-0.002 0.004-1.707 4.115-1.586 8.76 0.326 12.783l5 10.52-14.369 14.367-10.518-5c-4.020-1.91-8.67-2.031-12.783-0.326-0.002 0-0.004 0-0.006 0-4.105 1.705-7.299 5.068-8.787 9.258l-3.904 10.98h-20.32l-3.904-10.98c-1.49-4.186-4.686-7.555-8.789-9.258-0.002 0-0.004 0-0.006 0-4.112-1.705-8.757-1.586-12.78 0.326l-10.52 5-14.369-14.367 5.002-10.52c1.91-4.020 2.029-8.672 0.324-12.783 0-0.002 0-0.004-0.002-0.006-1.701-4.107-5.066-7.299-9.254-8.789l-10.98-3.902v-20.32l10.98-3.902c4.186-1.488 7.555-4.684 9.254-8.789 0.002-0.002 0.002-0.004 0.002-0.006 1.707-4.113 1.588-8.758-0.324-12.781l-5.002-10.52 14.369-14.367 10.52 4.998c4.020 1.912 8.67 2.031 12.782 0.326 0.002 0 0.002-0.002 0.004-0.002 4.107-1.701 7.297-5.064 8.789-9.252l3.904-10.982h20.32l3.879 10.91c1.502 4.225 4.727 7.625 8.867 9.348 0.002 0 0.004 0.002 0.006 0.002 4.074 1.695 8.676 1.578 12.662-0.316l10.584-5.031 14.369 14.367-5.002 10.525c-1.91 4.018-2.029 8.664-0.326 12.771 0 0.002 0.002 0.004 0.002 0.004 1.707 4.111 5.072 7.307 9.264 8.799l10.975 3.898zM386.561 122.505c-15.279 0-27.665 12.387-27.665 27.664 0 15.279 12.386 27.666 27.665 27.666s27.666-12.387 27.666-27.666c0-15.277-12.387-27.664-27.666-27.664zM315.284 80.187v11.139l-7.753 1.939c-1.605 0.402-2.873 1.646-3.3 3.246-0.002 0.008-0.005 0.018-0.007 0.025-0.423 1.576 0.045 3.26 1.218 4.393l5.771 5.584-5.57 9.646-7.647-2.186c-1.618-0.463-3.367-0.012-4.558 1.176-0.001 0.002-0.002 0.002-0.002 0.004-1.141 1.137-1.574 2.805-1.132 4.354l2.221 7.771-9.646 5.57-5.556-5.744c-1.15-1.188-2.857-1.664-4.454-1.236-0.009 0-0.017 0.004-0.024 0.006-1.58 0.42-2.807 1.666-3.204 3.254l-1.948 7.789h-11.139l-1.941-7.752c-0.401-1.605-1.646-2.873-3.246-3.301-0.008-0.002-0.018-0.004-0.025-0.006-1.576-0.424-3.258 0.045-4.393 1.217l-5.584 5.773-9.646-5.57 2.186-7.648c0.463-1.617 0.012-3.367-1.176-4.559-0.001 0-0.002-0.002-0.003-0.002-1.138-1.141-2.805-1.574-4.354-1.131l-7.772 2.221-5.568-9.646 5.744-5.555c1.187-1.15 1.662-2.859 1.236-4.455-0.002-0.008-0.006-0.018-0.007-0.025-0.42-1.58-1.667-2.807-3.254-3.203l-7.79-1.949v-11.139l7.753-1.939c1.606-0.402 2.873-1.648 3.3-3.246 0.003-0.010 0.005-0.020 0.006-0.027 0.424-1.576-0.044-3.258-1.217-4.393l-5.771-5.584 5.568-9.646 7.648 2.188c1.618 0.461 3.367 0.012 4.559-1.176 0.001-0.002 0.002-0.004 0.004-0.004 1.14-1.137 1.572-2.807 1.13-4.354l-2.222-7.773 9.646-5.568 5.556 5.744c1.149 1.188 2.858 1.662 4.454 1.236 0.009-0.002 0.018-0.004 0.026-0.006 1.579-0.42 2.806-1.668 3.203-3.254l1.95-7.791h11.139l1.939 7.754c0.402 1.605 1.646 2.873 3.247 3.299 0.007 0.004 0.016 0.006 0.024 0.008 1.576 0.422 3.258-0.045 4.393-1.219l5.583-5.771 9.646 5.568-2.186 7.65c-0.462 1.617-0.011 3.367 1.177 4.557 0.001 0.002 0.002 0.002 0.003 0.004 1.138 1.141 2.806 1.572 4.354 1.131l7.77-2.223 5.57 9.646-5.744 5.557c-1.187 1.15-1.662 2.857-1.236 4.455 0.002 0.008 0.006 0.016 0.007 0.025 0.421 1.58 1.668 2.805 3.254 3.203l7.79 1.949zM264.122 65.677c-11.089 0-20.078 8.99-20.078 20.080 0 11.088 8.989 20.078 20.078 20.078 11.090 0 20.078-8.99 20.078-20.078 0-11.090-8.988-20.080-20.078-20.080z" />
<glyph unicode="&#xe606;" d="M300.666 275.674l-27.43 27.407 116.020 116.021 72.607-72.608-116.020-116.020-14.404 14.402 101.615 101.617-43.799 43.799-49.588-49.586 12.973-12.975-7.201-7.201-12.973 12.973-7.822-7.82 12.973-12.975-7.201-7.201-12.973 12.973-7.566-7.565 13.014-13.017-7.201-7.201-13.016 13.015-7.82-7.82 13.014-13.017-7.202-7.201zM406.016 346.214c0 9.491-7.697 17.186-17.188 17.186s-17.188-7.694-17.188-17.186c0-9.493 7.697-17.188 17.188-17.188s17.188 7.695 17.188 17.188zM333.806 65.307l68.981 68.981-225.42 225.421-68.982-68.981 225.421-225.421zM157.811 379.266l-38.691 38.691-68.982-68.981 38.689-38.69 68.984 68.98zM353.406 45.79l86.312-15.93-17.413 84.829-68.899-68.899zM144.266 57.705l-43.799 43.799 11.561 11.56 13.025-13.023 7.201 7.201-13.023 13.026 7.873 7.873 13.014-13.014 7.201 7.201-13.012 13.015 7.82 7.821 13.014-13.014 7.201 7.201-13.012 13.015 7.566 7.567 12.971-12.971 7.201 7.201-12.971 12.971 7.822 7.822 12.971-12.971 7.201 7.201-27.33 27.421-93.104-93.104 72.607-72.606 93.105 93.104-14.404 14.402-78.699-78.698z" />
<glyph unicode="&#xe607;" d="M196.744 139.608l-87.592-86.376c-10.992-10.832-24.592-14.936-30.384-9.152-5.784 5.776-1.632 19.32 9.288 30.232l86.624 86.632c10.92 10.912 24.736 14.96 30.864 9.024 6.128-5.92 2.184-19.52-8.8-30.36zM450.224 389.52c-3.496 12.496-16.2 24.384-28.384 26.528-12.176 2.16-31.216-5.24-42.528-16.552l-83.664-83.64c-11.312-11.32-16.8-24.16-12.264-28.696s7.56-8.608 6.808-9.184c-0.448-0.336-0.88-0.712-1.288-1.12-6.024-5.952-5.944-15.584 0.184-21.528 6.136-5.936 15.88-5.984 21.784-0.088 0.376 0.368 0.72 0.76 1.048 1.168 0.544 0.688 4.792-2.568 9.552-7.336 4.768-4.76 17.792 0.552 29.104 11.848l85.504 85.52c11.296 11.296 17.632 30.592 14.144 43.080zM416.288 107.024l-155.224 153.768c-10.48 10.376-23.128 30.008-28.24 43.84l-17.296 46.76c-5.12 13.832-20.664 28.656-34.728 33.104l-49.968 15.8c-14.064 4.44-16.968-0.36-6.48-10.744l56.304-55.696c10.488-10.384 10.576-27.288 0.2-37.776l-19.6-19.816c-10.376-10.488-27.288-10.584-37.768-0.208l-56.304 55.696c-10.488 10.376-15.608 7.312-11.44-6.84l14.672-49.784c4.168-14.16 18.88-29.464 32.856-34.176l50.040-16.928c13.976-4.72 33.8-16.968 44.28-27.352l155.248-153.736c10.48-10.376 27.392-10.288 37.768 0.184l25.864 26.136c10.376 10.472 10.296 27.392-0.184 37.768zM346 88c-13.256 0-24 10.744-24 24s10.744 24 24 24c13.256 0 24-10.744 24-24s-10.744-24-24-24z" />
<glyph unicode="&#xe608;" d="M463.764 363.293c-10.565 3.466-19.101 21.976-14.829 32.148 3.584 8.497 7.572 10.417 0.827 17.162-5.376 5.297-10.861-2.008-15.183-4.342-1.861-1.024-4.627-1.713-5.967-1.979-7.916-1.556-26.92 4.952-26.92 23.266 0 4.825-1.979 6.715-7.128 6.696-4.992-0.010-7.897-0.867-9.147-6.518-1.113-5.031-2.353-11.313-5.563-14.198-5.632-5.071-12.928-9.501-21.937-9.236-3.889 0.118-8.753 3.899-12.918 6.528-4.392 2.776-7.7 3.919-12.259-0.601-4.726-4.697-2.747-7.926-0.128-12.13 2.599-4.175 7.050-9.098 6.41-12.968-1.231-7.424-4.519-15.055-8.93-21.159-2.363-3.279-8.753-4.234-13.519-5.002-5.661-0.925-6.902-3.554-6.942-8.891-0.049-5.701 2.107-7.779 7.424-8.724 4.519-0.787 10.762-1.526 12.82-4.588 4.362-6.528 7.611-14.326 9.068-22.036 0.67-3.565-3.584-8.369-6.223-12.18-3.121-4.529-3.476-7.709 0.877-12.13 4.677-4.736 8.064-4.165 12.81-0.709 3.515 2.56 8.182 6.528 11.471 5.819 7.68-1.654 15.459-4.835 21.957-9.236 3.053-2.088 3.525-8.34 4.618-12.84 1.083-4.45 1.438-8.29 7.916-8.33 6.193-0.040 8.832 1.92 10.26 7.857 1.221 5.090 2.717 12.455 6.321 14.188 11.087 5.346 21.779 13.666 31.961 3.643 1.014-0.995 6.863-5.248 13.548 1.506 5.957 6.006 2.895 11.411-0.551 15.262-10.378 11.599-1.93 33.811 8.557 33.517 10.772-0.286 14.425 1.496 14.425 10.506-0.010 9.374-9.305 8.448-13.125 9.699zM394.899 310.784c-21.051 0.099-37.947 17.299-37.849 38.528 0.108 20.893 17.546 37.976 38.597 37.819 20.549-0.157 37.613-17.546 37.553-38.291-0.069-21.12-17.201-38.144-38.301-38.055zM268.002 85.277c-10.575 3.476-19.101 21.986-14.819 32.147 3.584 8.507 7.562 10.427 0.827 17.162-5.386 5.297-10.87-1.999-15.183-4.342-1.861-1.014-4.627-1.704-5.967-1.969-7.917-1.565-26.919 4.952-26.919 23.257 0 4.834-1.979 6.725-7.129 6.705-4.992-0.019-7.887-0.877-9.137-6.518-1.113-5.031-2.353-11.313-5.573-14.208-5.642-5.061-12.928-9.491-21.937-9.226-3.88 0.118-8.753 3.899-12.918 6.518-4.392 2.786-7.709 3.919-12.258-0.591-4.726-4.697-2.737-7.926-0.128-12.13 2.6-4.175 7.060-9.098 6.41-12.967-1.24-7.424-4.519-15.055-8.941-21.169-2.363-3.269-8.753-4.224-13.519-4.992-5.662-0.925-6.902-3.555-6.942-8.891-0.049-5.701 2.107-7.779 7.424-8.724 4.519-0.788 10.771-1.526 12.819-4.589 4.362-6.528 7.601-14.326 9.059-22.036 0.669-3.565-3.584-8.369-6.213-12.18-3.131-4.529-3.486-7.709 0.876-12.14 4.667-4.726 8.074-4.155 12.8-0.699 3.505 2.55 8.182 6.528 11.471 5.819 7.69-1.654 15.469-4.834 21.957-9.245 3.062-2.077 3.525-8.33 4.618-12.829 1.083-4.45 1.438-8.291 7.917-8.33 6.184-0.039 8.832 1.92 10.26 7.857 1.221 5.091 2.708 12.456 6.321 14.188 11.087 5.346 21.779 13.666 31.951 3.643 1.014-0.995 6.873-5.248 13.558 1.497 5.957 6.016 2.895 11.421-0.551 15.272-10.378 11.599-1.93 33.812 8.556 33.517 10.772-0.286 14.425 1.497 14.425 10.506 0 9.373-9.285 8.438-13.115 9.688zM199.138 32.778c-21.041 0.099-37.947 17.3-37.839 38.518 0.099 20.904 17.536 37.986 38.587 37.829 20.549-0.158 37.613-17.546 37.553-38.301-0.059-21.12-17.191-38.144-38.302-38.046zM295.788 324.392c-18.914 6.213-34.186 39.355-26.526 57.541 6.41 15.212 13.538 18.639 1.477 30.71-9.639 9.482-19.446-3.584-27.175-7.779-3.338-1.822-8.271-3.062-10.683-3.535-14.168-2.796-48.177 8.862-48.177 41.639 0.010 8.655-3.544 12.022-12.761 11.993-8.94-0.029-14.119-1.555-16.355-11.668-1.999-8.999-4.214-20.263-9.964-25.433-10.093-9.058-23.158-17.005-39.267-16.522-6.951 0.197-15.675 6.981-23.129 11.688-7.857 4.982-13.794 7.010-21.937-1.064-8.477-8.399-4.913-14.178-0.227-21.711 4.647-7.483 12.632-16.286 11.481-23.217-2.216-13.282-8.084-26.939-15.99-37.888-4.224-5.859-15.655-7.562-24.182-8.941-10.132-1.644-12.357-6.361-12.435-15.911-0.079-10.2 3.781-13.923 13.282-15.596 8.104-1.418 19.279-2.737 22.952-8.212 7.808-11.688 13.617-25.649 16.227-39.453 1.201-6.381-6.419-14.966-11.126-21.799-5.602-8.113-6.233-13.794 1.566-21.731 8.36-8.467 14.434-7.434 22.912-1.27 6.302 4.579 14.651 11.697 20.529 10.427 13.755-2.964 27.677-8.655 39.296-16.551 5.475-3.731 6.311-14.917 8.261-22.961 1.94-7.976 2.56-14.829 14.168-14.907 11.077-0.079 15.803 3.437 18.353 14.060 2.176 9.098 4.864 22.282 11.293 25.393 19.859 9.57 38.991 24.448 57.197 6.528 1.812-1.792 12.288-9.403 24.261 2.688 10.654 10.762 5.179 20.431-0.985 27.313-18.57 20.756-3.456 60.514 15.32 59.993 19.288-0.531 25.817 2.678 25.817 18.796-0.010 16.808-16.63 15.144-23.473 17.379zM172.534 230.429c-37.661 0.177-67.919 30.966-67.731 68.953 0.177 37.396 31.39 67.978 69.071 67.683 36.785-0.266 67.318-31.399 67.219-68.529-0.118-37.809-30.779-68.273-68.559-68.106z" />
<glyph unicode="&#xe609;" d="M310.264 270.576c-35.568 0-64.512-28.936-64.512-64.504 0-35.56 28.944-64.504 64.512-64.504 35.56 0 64.488 28.944 64.488 64.504 0 35.576-28.92 64.504-64.488 64.504zM415.952 349.264h-27.576l-35.016 32.816h-97.216l-28.432-32.816h-58.704c-2.624 10.84-9.736 18.24-18.248 18.24h-41.496c-8.552 0-15.72-7.488-18.288-18.464-29.392-2.576-52.512-27.328-52.512-57.368v-168.152c0-31.76 25.832-57.6 57.6-57.6h319.888c31.76 0 57.584 25.84 57.584 57.6v168.152c0 31.752-25.824 57.592-57.584 57.592zM90.56 138.568c0-6.008-4.888-10.872-10.896-10.872s-10.88 4.864-10.88 10.872v114.8c0 6.008 4.872 10.88 10.88 10.88s10.896-4.872 10.896-10.88v-114.8zM156.032 306.752c0-6.336-5.16-11.48-11.488-11.48h-29.512c-6.336 0-11.488 5.144-11.488 11.48v6.752c0 6.344 5.152 11.488 11.488 11.488h29.512c6.336 0 11.488-5.144 11.488-11.488v-6.752zM310.264 114.048c-50.744 0-92.032 41.288-92.032 92.032 0 50.728 41.288 92.016 92.032 92.016 50.736 0 92-41.288 92-92.016 0-50.744-41.264-92.032-92-92.032z" />
<glyph unicode="&#xe60a;" d="M386.141 122.717c0.791-6.067-1.057-11.341-5.539-15.825l-52.62-52.223c-2.374-2.637-5.473-4.881-9.298-6.726-3.825-1.846-7.582-3.033-11.274-3.56-0.264 0-1.057-0.067-2.375-0.199-1.317-0.132-3.032-0.198-5.142-0.198-5.012 0-13.123 0.857-24.333 2.572-11.209 1.714-24.925 5.936-41.145 12.661-16.222 6.726-34.619 16.816-55.192 30.266s-42.465 31.914-65.675 55.389c-18.463 18.2-33.761 35.608-45.894 52.224s-21.892 31.981-29.277 46.091c-7.386 14.111-12.925 26.904-16.617 38.377s-6.198 21.364-7.517 29.672c-1.319 8.309-1.847 14.837-1.582 19.584 0.264 4.748 0.396 7.385 0.396 7.913 0.527 3.692 1.714 7.451 3.56 11.275s4.088 6.923 6.726 9.298l52.62 52.62c3.692 3.692 7.912 5.539 12.66 5.539 3.429 0 6.462-0.989 9.1-2.968s4.879-4.418 6.726-7.32l42.333-80.314c2.374-4.22 3.033-8.836 1.978-13.847-1.055-5.012-3.297-9.232-6.726-12.661l-19.386-19.386c-0.528-0.528-0.989-1.385-1.385-2.572s-0.594-2.176-0.594-2.967c1.055-5.539 3.429-11.869 7.121-18.99 3.165-6.33 8.044-14.045 14.638-23.144 6.594-9.1 15.958-19.584 28.090-31.452 11.869-12.134 22.419-21.562 31.651-28.288 9.23-6.724 16.947-11.671 23.144-14.837 6.198-3.165 10.946-5.077 14.243-5.736l4.944-0.989c0.528 0 1.386 0.198 2.572 0.594s2.044 0.857 2.571 1.385l22.551 22.947c4.749 4.22 10.286 6.33 16.616 6.33 4.485 0 8.045-0.791 10.682-2.374h0.396l76.356-45.103c5.541-3.43 8.838-7.782 9.893-13.058z" horiz-adv-x="396" />
<glyph unicode="&#xe60b;" d="M309.387 155.555c2.901 2.901 3.957 6.067 3.165 9.495-0.264 1.582-0.925 3.032-1.979 4.351s-2.242 2.505-3.56 3.56l-46.685 27.3-0.396 0.394c-1.582 0.793-3.692 1.187-6.33 1.187-4.22 0-7.517-1.318-9.891-3.955l-13.847-13.848c-0.792-0.792-1.846-1.188-3.165-1.188-3.165 0.527-6.989 1.979-11.474 4.352-3.692 2.11-8.375 5.077-14.045 8.902-5.671 3.825-12.199 9.43-19.584 16.815-5.275 5.538-10.155 11.078-14.638 16.617-3.692 4.484-7.121 9.363-10.286 14.638s-4.88 9.891-5.143 13.848c0 1.319 0.395 2.374 1.187 3.165l11.869 11.869c2.11 2.11 3.429 4.681 3.957 7.715 0.528 3.033 0.132 5.868-1.187 8.506l-25.716 48.267c-2.11 4.22-5.275 6.33-9.495 6.33-2.637 0-5.275-1.055-7.912-3.165l-31.651-32.047c-1.582-1.319-2.968-3.231-4.154-5.736-1.187-2.505-1.912-4.813-2.176-6.923v-9.891c0 0 1.715-8.177 5.144-24.53s9.43-28.618 18.002-36.794c8.572-8.176 21.166-23.606 37.784-46.289 14.243-14.243 27.563-25.452 39.959-33.63 12.397-8.175 23.541-14.309 33.431-18.397 9.891-4.087 18.265-6.66 25.121-7.715 6.857-1.055 11.737-1.582 14.64-1.582 1.319 0 2.374 0.067 3.165 0.199 0.793 0.131 1.319 0.199 1.582 0.199 2.11 0.264 4.351 0.989 6.726 2.176 2.374 1.187 4.351 2.572 5.935 4.154l31.652 31.651zM197.818 421.818c27.167 0 52.817-5.209 76.951-15.627s45.103-24.529 62.906-42.333 31.914-38.772 42.333-62.906 15.627-49.784 15.627-76.952c0-18.2-2.374-35.739-7.122-52.62-4.749-16.879-11.408-32.639-19.98-47.279-8.572-14.639-18.858-27.959-30.86-39.959-12-12.001-25.32-22.289-39.959-30.86-14.64-8.572-30.398-15.232-47.279-19.979-16.88-4.748-34.419-7.122-52.619-7.122-18.2 0-35.739 2.374-52.619 7.122-16.881 4.749-32.64 11.408-47.279 19.98-14.638 8.572-27.959 18.858-39.959 30.86-12.001 12-22.288 25.32-30.86 39.959-8.572 14.64-15.232 30.398-19.98 47.279-4.747 16.88-7.122 34.421-7.122 52.62 0 18.2 2.374 35.739 7.122 52.62 4.747 16.881 11.408 32.64 19.98 47.279 8.572 14.638 18.859 27.959 30.86 39.959 12.001 12.001 25.321 22.288 39.959 30.86 14.638 8.572 30.398 15.232 47.279 19.979 16.881 4.748 34.421 7.122 52.62 7.122z" horiz-adv-x="396" />
<glyph unicode="&#xe60c;" d="M76.237 403.762c99.28 99.28 260.245 99.28 359.524 0s99.28-260.245 0-359.524c-99.28-99.28-260.245-99.28-359.524 0-99.28 99.28-99.28 260.245 0 359.524zM134.064 64.351c79.55-60.289 192.184-54.204 263.986 17.599s77.889 184.436 18.257 263.161zM377.937 383.649c-79.55 60.289-192.184 54.204-263.986-17.599-71.802-71.803-77.888-184.437-18.257-263.161z" />
<glyph unicode="&#xe60d;" d="M416 432c-44.188 0-80-35.813-80-80 0-11.938 2.625-23.281 7.313-33.438l72.687-142.562 72.688 142.563c4.687 10.156 7.312 21.499 7.312 33.437 0 44.187-35.812 80-80 80zM416 304c-26.5 0-48 21.5-48 48s21.5 48 48 48 48-21.5 48-48-21.5-48-48-48zM439.938 152.531l29.125-58.219-73.844-36.906-24.75 123.813 4.594 4.594-15.25 30-7.813-7.813-96 64-96-64-64 64-96-192 128-64 128 64 128-64 128 64-54 107.969-18.062-35.438zM116.75 57.406l-73.813 36.906 61.813 123.688 36.781-36.781-24.781-123.813zM240 107.781l-89.5-44.75 23.125 115.594 66.375 44.25v-115.094zM272 107.781v115.094l66.344-44.25 23.125-115.594-89.469 44.75z" />
<glyph unicode="&#xe60e;" d="M78.564-19.081c0 0-0.525-12.919 12.108-12.919 15.722 0 145.654 0.175 145.654 0.175l0.219 119.356c0 0-2.058 19.663 17.013 19.663h60.456c22.575 0 21.195-19.663 21.195-19.663l-0.263-118.984c0 0 123.232 0 142.589 0 16.028 0 15.305 16.072 15.305 16.072v220.101l-200.964 178.739-213.314-178.761v-223.78zM0 221.339c0 0 18.087-33.37 57.609 0l236.064 199.715 221.306-198.467c45.72-32.976 62.864 0 62.864 0l-284.17 257.413-293.673-258.661zM509.591 421.515h-56.909l0.241-69.039 56.668-48.106z" horiz-adv-x="578" />
<glyph unicode="&#xe60f;" d="M103.624 274.688c0 79.749 64.876 144.63 144.63 144.63 66.018 0 121.713-44.508 138.987-105.063-3.159-3.42-5.366-7.757-5.99-12.667l-1.577-12.621-2.678-14.295-14.781 0.015c0 62.843-51.128 113.966-113.961 113.966-62.848 0-113.976-51.123-113.976-113.966 0-42.629 23.567-79.8 58.311-99.349l-22.287-22.288c-40.038 25.753-66.678 70.599-66.678 121.636zM248.254 365.527c-8.474 0-15.329-6.866-15.329-15.329v-75.51c0-8.464 6.856-15.329 15.329-15.329h86.727c8.469 0 15.334 6.866 15.334 15.329 0 8.469-6.866 15.334-15.334 15.334h-71.399v60.175c0 8.464-6.871 15.329-15.329 15.329zM407.906 297.953c-0.108 4.009-3.287 7.26-7.286 7.465-3.825 0.22-7.49-2.708-7.993-6.702l-1.639-13.077-2.862-15.268c-1.183-5.294-2.406-10.767-4.68-16.717l-3.435-10.050-4.869-10.711c-1.741-4.393-4.377-8.816-7.178-13.502-1.423-2.37-2.857-4.767-4.199-7.214-1.413-1.904-2.796-3.84-4.163-5.791-3.61-5.084-7.010-9.887-11.577-14.674-3.968-4.951-8.724-9.375-13.747-14.060-1.479-1.377-2.949-2.75-4.403-4.137-1.628-1.239-3.241-2.493-4.839-3.743-5.34-4.158-10.368-8.079-16.353-11.52-4.623-3.221-9.902-5.822-14.997-8.325-2.13-1.050-4.245-2.094-6.298-3.159-2.601-0.937-5.13-1.945-7.623-2.939-4.67-1.869-9.078-3.625-13.747-4.654l-10.132-2.806-9.964-1.705c-5.069-1.086-9.529-1.341-13.85-1.598l-8.12-0.62-1.147 0.026v35.769c0 3.098-1.863 5.893-4.731 7.081-2.877 1.183-6.16 0.533-8.361-1.659l-65.951-65.945c-1.434-1.438-2.243-3.389-2.243-5.422s0.809-3.983 2.243-5.422l65.951-65.945c1.47-1.464 3.43-2.243 5.422-2.243 0.988 0 1.987 0.19 2.939 0.584 2.867 1.188 4.731 3.983 4.731 7.086v37.376l14.116 2.586c6.528 1.346 14.654 3.036 22.436 5.924l9.072 3.041 15.043 6.364c6.339 2.498 12.344 6.011 18.145 9.406 2.483 1.454 4.992 2.918 7.552 4.327 0.281 0.154 0.543 0.322 0.809 0.507 2.002 1.444 4.034 2.862 6.077 4.286 6.195 4.301 12.59 8.755 18.063 13.901 6.759 5.386 12.667 11.627 18.375 17.664l4.142 4.362c0.179 0.19 0.353 0.384 0.522 0.594l3.748 4.741c5.11 6.425 10.404 13.082 14.397 19.911 4.475 6.4 7.844 13.072 11.106 19.533 1.122 2.233 2.238 4.439 3.379 6.599 0.154 0.297 0.297 0.599 0.409 0.911 1.019 2.739 2.115 5.412 3.19 8.038 2.381 5.817 4.839 11.832 6.226 17.731l3.533 12.575 2.017 11.059c1.603 7.291 2.063 13.962 2.478 19.845l0.738 10.005-0.476 20.311z" />
<glyph unicode="&#xe610;" d="M416 480h-320c-53.024 0-96-42.976-96-96v-320c0-53.024 42.976-96 96-96h320c53.024 0 96 42.976 96 96v320c0 53.024-42.976 96-96 96zM322.176 224.032l-41.952-0.032-0.032-153.6h-57.568v153.6h-38.4v52.928l38.4 0.032-0.064 31.168c0 43.2 11.712 69.472 62.56 69.472h42.368v-52.96h-26.496c-19.808 0-20.768-7.392-20.768-21.184l-0.064-26.496h47.616l-5.6-52.928z" />
<glyph unicode="&#xe611;" d="M256 480c-141.376 0-256-114.624-256-256s114.624-256 256-256 256 114.624 256 256c0 141.408-114.624 256-256 256zM322.176 224.032l-41.952-0.032-0.032-153.6h-57.568v153.6h-38.4v52.928l38.4 0.032-0.064 31.168c0 43.2 11.712 69.472 62.56 69.472h42.368v-52.96h-26.496c-19.808 0-20.768-7.392-20.768-21.184l-0.064-26.496h47.616l-5.6-52.928z" />
<glyph unicode="&#xe612;" d="M515.882 187.43h-18.288c-2.668 0-4.861-0.856-6.568-2.57-1.719-1.712-2.574-3.903-2.574-6.572v-91.427c0-12.572-4.471-23.331-13.424-32.284s-19.716-13.424-32.288-13.424h-237.715c-12.572 0-23.334 4.471-32.287 13.424s-13.428 19.712-13.428 32.284v237.716c0 12.572 4.475 23.331 13.428 32.284 8.953 8.953 19.715 13.427 32.287 13.427h201.139c2.672 0 4.864 0.859 6.575 2.57 1.712 1.715 2.567 3.903 2.567 6.572v18.288c0 2.665-0.856 4.857-2.567 6.569-1.712 1.715-3.903 2.57-6.575 2.57h-201.139c-22.665 0-42.047-8.048-58.144-24.141-16.093-16.096-24.141-35.479-24.141-58.144v-237.716c0-22.665 8.048-42.047 24.141-58.137 16.096-16.096 35.479-24.148 58.144-24.148h237.716c22.665 0 42.047 8.051 58.144 24.148 16.096 16.089 24.144 35.472 24.144 58.137v91.427c0 2.668-0.856 4.861-2.574 6.575-1.715 1.715-3.907 2.57-6.572 2.57zM629.308 437.998c-3.619 3.619-7.912 5.429-12.86 5.429h-146.284c-4.952 0-9.24-1.81-12.856-5.429-3.619-3.619-5.432-7.904-5.432-12.856 0-4.952 1.813-9.24 5.432-12.859l50.284-50.284-186.284-186.288c-1.908-1.904-2.858-4.096-2.858-6.568 0-2.479 0.954-4.671 2.858-6.575l32.572-32.568c1.904-1.904 4.096-2.854 6.572-2.854s4.668 0.95 6.572 2.854l186.284 186.284 50.288-50.285c3.615-3.619 7.904-5.428 12.856-5.428s9.24 1.81 12.86 5.428 5.428 7.904 5.428 12.856v146.288c0 4.955-1.817 9.237-5.432 12.856z" horiz-adv-x="758" />
<glyph unicode="&#xe613;" d="M0 448v-448c0-17.664 14.336-32 32-32h32v512h-32c-17.664 0-32-14.336-32-32zM416 480h-320v-512h320c17.664 0 32 14.336 32 32v448c0 17.664-14.336 32-32 32zM270.24 356.672c26.752 0 48.416-21.696 48.416-48.416 0-26.752-21.728-48.448-48.416-48.448-26.752 0-48.448 21.696-48.448 48.448s21.696 48.416 48.448 48.416zM192 134.176c0 58.688 35.488 106.24 79.232 106.24 43.744 0 79.232-47.616 79.232-106.24 0-58.688-158.464-58.688-158.464 0zM480 448h32v-96h-32v96zM480 320h32v-96h-32v96zM480 192h32v-96h-32v96z" />
<glyph unicode="&#xe614;" d="M383.452 221.358l-18.668 18.681c61.012 61.026 60.997 160.282-0.029 221.293l18.696 18.668c71.32-71.291 71.32-187.351 0-258.642zM332.474 272.336l18.668-18.711c53.504 53.519 53.504 140.589 0 194.079l-18.668-18.668c43.196-43.181 43.196-113.519 0-156.701zM317.834 286.975c35.14 35.125 35.14 92.311-0.014 127.422l-18.668-18.667c24.861-24.861 24.861-65.271 0-90.074l18.681-18.681zM72.186 461.332l-18.696 18.668c-71.305-71.291-71.305-187.351 0-258.642l18.668 18.681c-61.011 60.997-60.997 160.267 0.029 221.293zM85.772 253.625l18.681 18.711c-43.196 43.181-43.196 113.476 0 156.701l-18.681 18.681c-53.504-53.489-53.504-140.575 0-194.093zM119.093 286.975l18.681 18.681c-24.832 24.846-24.832 65.256 0.014 90.074l-18.681 18.667c-35.14-35.154-35.14-92.311-0.014-127.422zM325.861 22.948h-64.231l-38.519 278.334c17.946 2.31 31.863 17.469 31.863 36.050 0 20.154-16.358 36.497-36.512 36.497-20.168 0-36.512-16.357-36.512-36.497 0-18.581 13.917-33.74 31.849-36.050l-38.504-278.334h-64.231c-15.174 0-27.459-12.315-27.459-27.459 0-15.173 12.3-27.474 27.459-27.474h214.811c15.173 0 27.459 12.315 27.459 27.474 0 15.144-12.286 27.459-27.474 27.459z" horiz-adv-x="437" />
<glyph unicode="&#xe615;" d="M48.375 298.937c0-55.563 21.656-107.813 61-147.125l-33.938-33.938c-48.406 48.376-75.062 112.688-75.062 181.063s26.625 132.688 75 181l33.938-33.937c-39.313-39.25-60.938-91.5-60.938-147.063zM182.813 372.5l-33.938 33.938c-28.688-28.75-44.5-66.938-44.5-107.5 0-40.625 15.813-78.813 44.563-107.5l33.938 33.938c-19.688 19.625-30.5 45.75-30.5 73.563-0.001 27.748 10.812 53.873 30.437 73.561zM437.313 480l-33.938-33.938c39.344-39.313 61-91.563 61-147.125s-21.625-107.813-60.906-147.125l33.938-33.938c48.344 48.375 74.969 112.688 74.969 181.063-0.001 68.438-26.657 132.75-75.063 181.063zM256.375 346.937c-26.5 0-48-21.5-48-48 0-17.75 9.719-33.063 24-41.344v-289.593h48v289.562c14.281 8.313 24 23.625 24 41.375 0 26.5-21.469 48-48 48zM363.813 406.437l-33.938-33.937c19.656-19.688 30.5-45.813 30.5-73.563 0-27.813-10.813-53.938-30.438-73.563l33.938-33.938c28.688 28.688 44.5 66.875 44.5 107.5s-15.812 78.751-44.562 107.501z" />
<glyph unicode="&#xe616;" d="M240.876 18.944v0c-35.939 0-70.321 9.078-101.711 26.624-33.359-15.281-55.926-44.288-55.926-77.568h230.006c0 20.559-15.084 44.308-33.379 54.508-12.524-2.264-25.541-3.565-38.991-3.565zM315.077 283.077c0-21.751-17.633-39.385-39.385-39.385-21.751 0-39.385 17.633-39.385 39.385 0 21.751 17.633 39.385 39.385 39.385 21.752 0 39.385-17.633 39.385-39.385zM328.606 249.363c-8.31-6.715-18.058-29.282-13.45-37.041 21.878-36.904 28.16-69.849 12.899-85.091-23.493-23.493-89.029 3.919-146.333 61.224-57.344 57.325-84.755 122.821-61.224 146.353 14.375 14.395 44.623 9.649 79.064-9.413 8.054-4.451 30.936 5.376 37.514 13.784-60.16 41.078-120.32 52.992-148.677 24.635-36.667-36.667-91.313-147.555 14.888-253.775 97.142-97.162 217.068-51.574 253.755-14.907 29.243 29.243 15.774 92.298-28.435 154.23z" />
</font>
</defs>
</svg>
