<?xml version="1.0" standalone="no"?>
<!DOCTYPE svg PUBLIC "-//W3C//DTD SVG 1.1//EN" "http://www.w3.org/Graphics/SVG/1.1/DTD/svg11.dtd" >
<svg xmlns="http://www.w3.org/2000/svg">
<metadata>Generated by IcoMoon</metadata>
<defs>
<font id="icomoon" horiz-adv-x="512">
<font-face units-per-em="512" ascent="480" descent="-32" />
<missing-glyph horiz-adv-x="512" />
<glyph unicode="&#x20;" d="" horiz-adv-x="256" />
<glyph unicode="&#xe600;" d="M512 184.778l-256 198.713-256-198.714v81.019l256 198.713 256-198.714zM448 192v-192h-128v128h-128v-128h-128v192l192 144z" />
<glyph unicode="&#xe601;" d="M0 384l160 64v-384l-160-64zM352 384v-384l-160 53.333v384zM512 448v-384l-128-51.2v384z" />
<glyph unicode="&#xe602;" d="M336 384l-160 64-176-64v-384l176 64 160-64 176 64v384l-176-64zM192 407.135l128-51.2v-315.069l-128 51.199v315.070zM32 361.586l128 46.545v-315.9l-128-46.544v315.899zM480 86.414l-128-46.546v315.9l128 46.545v-315.899z" />
<glyph unicode="&#xe603;" d="M512 64v384h-512v-384h224v-32h-96v-32h256v32h-96v32h224zM64 384h384v-256h-384v256z" />
<glyph unicode="&#xe604;" d="M256 448c141.385 0 256-93.125 256-208s-114.615-208-256-208c-13.578 0-26.905 0.867-39.912 2.522-54.989-54.989-120.625-64.85-184.088-66.298v13.458c34.268 16.789 64 47.37 64 82.318 0 4.877-0.379 9.665-1.082 14.348-57.898 38.132-94.918 96.377-94.918 161.652 0 114.875 114.615 208 256 208z" />
<glyph unicode="&#xe605;" d="M544 29.417c0-22.75 13.014-42.454 32-52.092v-7.969c-5.313-0.727-10.736-1.112-16.25-1.112-34.004 0-64.674 14.264-86.361 37.132-13.111-3.491-27.001-5.376-41.389-5.376-79.529 0-144 57.308-144 128s64.471 128 144 128c79.529 0 144-57.308 144-128 0-27.674-9.882-53.296-26.678-74.233-3.412-7.412-5.322-15.656-5.322-24.35zM256 480c139.229 0 252.496-90.307 255.918-202.76-24.591 10.96-51.793 16.76-79.918 16.76-47.78 0-92.908-16.723-127.069-47.089-35.423-31.486-54.931-73.717-54.931-118.911 0-22.336 4.772-43.944 13.868-63.894-2.614-0.063-5.234-0.106-7.868-0.106-13.578 0-26.905 0.867-39.912 2.522-54.989-54.989-120.625-64.85-184.088-66.298v13.458c34.268 16.789 64 47.37 64 82.318 0 4.877-0.379 9.665-1.082 14.348-57.898 38.132-94.918 96.377-94.918 161.652 0 114.875 114.615 208 256 208z" horiz-adv-x="576" />
<glyph unicode="&#xe606;" d="M240 480v0c132.548 0 240-86.957 240-194.224s-107.452-194.224-240-194.224c-12.729 0-25.223 0.81-37.417 2.355-51.553-51.347-111.086-60.554-170.583-61.907v12.567c32.126 15.677 58 44.233 58 76.867 0 4.553-0.356 9.024-1.015 13.397-54.279 35.607-88.985 89.994-88.985 150.945 0 107.267 107.452 194.224 240 194.224zM498 44.657c0-27.971 18.157-52.449 46-65.886v-10.771c-51.563 1.159-98.893 9.051-143.571 53.063-10.57-1.325-21.397-2.020-32.429-2.020-47.735 0-91.704 12.879-126.807 34.52 72.337 0.253 140.63 23.427 192.417 65.336 26.104 21.126 46.697 45.913 61.207 73.674 15.383 29.433 23.183 60.791 23.183 93.203 0 5.224-0.225 10.418-0.629 15.584 36.285-29.967 58.629-70.811 58.629-115.838 0-52.244-30.079-98.861-77.12-129.382-0.571-3.748-0.88-7.58-0.88-11.483z" horiz-adv-x="576" />
<glyph unicode="&#xe607;" d="M256 384c-27.466 0-53.994-4.331-78.847-12.871-23.356-8.027-44.153-19.372-61.814-33.722-33.107-26.899-51.339-61.492-51.339-97.407 0-20.149 5.594-39.689 16.626-58.076 11.376-18.96 28.491-36.293 49.494-50.126 15.178-9.996 25.39-25.974 28.088-43.947 0.9-5.992 1.464-12.044 1.685-18.062 3.735 3.097 7.375 6.423 10.94 9.988 12.077 12.076 28.39 18.745 45.251 18.745 2.684 0 5.381-0.168 8.078-0.512 10.487-1.333 21.199-2.010 31.838-2.010 27.467 0 53.994 4.33 78.847 12.871 23.356 8.027 44.153 19.372 61.814 33.722 33.107 26.898 51.339 61.492 51.339 97.407s-18.232 70.508-51.339 97.407c-17.661 14.349-38.458 25.695-61.814 33.722-24.853 8.54-51.38 12.871-78.847 12.871zM256 448v0c141.385 0 256-93.125 256-208s-114.615-208-256-208c-13.578 0-26.905 0.867-39.912 2.522-54.989-54.989-120.625-64.85-184.088-66.298v13.458c34.268 16.789 64 47.37 64 82.318 0 4.877-0.379 9.665-1.082 14.348-57.898 38.132-94.918 96.377-94.918 161.652 0 114.875 114.615 208 256 208z" />
<glyph unicode="&#xe608;" d="M544 29.417c0-22.75 13.014-42.454 32-52.092v-7.969c-5.313-0.727-10.736-1.112-16.25-1.112-34.004 0-64.674 14.264-86.361 37.132-13.111-3.491-27.001-5.376-41.389-5.376-79.529 0-144 57.308-144 128s64.471 128 144 128c79.529 0 144-57.308 144-128 0-27.674-9.882-53.296-26.678-74.233-3.412-7.412-5.322-15.656-5.322-24.35zM115.339 369.407c-33.107-26.899-51.339-61.492-51.339-97.407 0-20.149 5.594-39.689 16.626-58.075 11.376-18.96 28.491-36.293 49.494-50.126 15.178-9.996 25.39-25.974 28.088-43.947 0.9-5.992 1.464-12.044 1.685-18.062 3.735 3.097 7.375 6.423 10.94 9.988 12.077 12.076 28.39 18.745 45.251 18.745 2.684 0 5.381-0.168 8.078-0.512 10.474-1.331 21.172-2.008 31.797-2.010v-64c-13.564 0.001-26.877 0.869-39.871 2.521-54.989-54.989-120.625-64.85-184.088-66.298v13.458c34.268 16.789 64 47.37 64 82.318 0 4.877-0.379 9.665-1.082 14.348-57.898 38.132-94.918 96.377-94.918 161.652 0 114.875 114.615 208 256 208 139.229 0 252.496-90.307 255.918-202.76-20.548 9.158-42.92 14.711-66.131 16.289-5.765 28.034-22.701 54.408-49.126 75.878-17.661 14.349-38.458 25.695-61.814 33.722-24.853 8.54-51.38 12.871-78.847 12.871s-53.994-4.331-78.847-12.871c-23.356-8.027-44.153-19.372-61.814-33.722z" horiz-adv-x="576" />
<glyph unicode="&#xe609;" d="M240 416c-25.333 0-49.791-3.975-72.693-11.814-21.462-7.347-40.557-17.718-56.751-30.823-30.022-24.295-46.556-55.401-46.556-87.587 0-17.995 5.033-35.474 14.96-51.949 10.343-17.17 25.949-32.897 45.13-45.479 15.22-9.984 25.468-25.976 28.181-43.975 0.451-2.995 0.815-6.003 1.090-9.016 1.361 1.26 2.712 2.557 4.057 3.897 12.069 12.020 28.344 18.656 45.161 18.656 2.674 0 5.359-0.168 8.047-0.509 9.68-1.226 19.562-1.848 29.374-1.848 25.333 0 49.79 3.974 72.692 11.814 21.463 7.346 40.558 17.717 56.752 30.822 30.023 24.295 46.556 55.401 46.556 87.587s-16.533 63.291-46.556 87.587c-16.194 13.106-35.289 23.476-56.752 30.823-22.902 7.839-47.359 11.814-72.692 11.814zM240 480v0c132.548 0 240-86.957 240-194.224s-107.452-194.224-240-194.224c-12.729 0-25.223 0.81-37.417 2.355-51.553-51.347-111.086-60.554-170.583-61.907v12.567c32.126 15.677 58 44.233 58 76.867 0 4.553-0.356 9.024-1.015 13.397-54.279 35.607-88.985 89.994-88.985 150.945 0 107.267 107.452 194.224 240 194.224zM498 44.657c0-27.971 18.157-52.449 46-65.886v-10.771c-51.563 1.159-98.893 9.051-143.571 53.063-10.57-1.325-21.397-2.020-32.429-2.020-47.735 0-91.704 12.879-126.807 34.52 72.337 0.253 140.63 23.427 192.417 65.336 26.104 21.126 46.697 45.913 61.207 73.674 15.383 29.433 23.183 60.791 23.183 93.203 0 5.224-0.225 10.418-0.629 15.584 36.285-29.967 58.629-70.811 58.629-115.838 0-52.244-30.079-98.861-77.12-129.382-0.571-3.748-0.88-7.58-0.88-11.483z" horiz-adv-x="576" />
<glyph unicode="&#xe60a;" d="M311.413 128.632c-11.055 1.759-11.307 32.157-11.307 32.157s32.484 32.158 39.564 75.401c19.045 0 30.809 45.973 11.761 62.148 0.795 17.027 24.48 133.662-95.431 133.662s-96.225-116.635-95.432-133.662c-19.047-16.175-7.285-62.148 11.761-62.148 7.079-43.243 39.564-75.401 39.564-75.401s-0.252-30.398-11.307-32.157c-35.61-5.666-168.586-64.317-168.586-128.632h448c0 64.315-132.976 122.966-168.587 128.632z" />
<glyph unicode="&#xe60b;" d="M367.497 77.313c-9.476 1.494-9.692 27.327-9.692 27.327s27.844 27.328 33.912 64.076c16.326 0 26.407 39.069 10.082 52.814 0.681 14.47 20.984 113.588-81.799 113.588s-82.479-99.118-81.799-113.588c-16.327-13.745-6.244-52.814 10.081-52.814 6.067-36.748 33.913-64.076 33.913-64.076s-0.216-25.833-9.692-27.327c-30.524-4.816-144.503-54.658-144.503-109.313h384c0 54.655-113.979 104.497-144.503 109.313zM172.027 68.595c22.047 13.575 48.813 26.154 70.769 33.712-7.876 11.216-16.647 26.468-22.165 44.531-7.703 6.283-13.972 15.266-17.999 26.301-4.033 11.052-5.561 23.426-4.304 34.842 0.902 8.196 3.239 15.833 6.825 22.544-2.175 23.293-3.707 69.017 26.224 102.366 11.607 12.933 26.278 22.23 43.85 27.843-3.137 32.38-19.58 70.385-83.227 70.385-102.782 0-82.479-99.118-81.799-113.588-16.327-13.745-6.244-52.814 10.081-52.814 6.067-36.748 33.913-64.076 33.913-64.076s-0.216-25.833-9.692-27.327c-30.524-4.817-144.503-54.659-144.503-109.314h164.798c2.355 1.537 4.753 3.070 7.229 4.595z" />
<glyph unicode="&#xe60c;" d="M424-32h-336c-13.255 0-24 10.745-24 24 0 34.431 14.534 76.102 38.879 111.471 20.346 29.559 45.342 51.81 72.339 64.805-11.899 10.822-22.147 24.013-30.254 39.061-13 24.131-19.873 52.024-19.873 80.664 0 39.803 13.102 77.411 36.893 105.895 24.832 29.73 58.221 46.104 94.016 46.104s69.184-16.374 94.017-46.105c23.79-28.484 36.893-66.091 36.893-105.895 0-28.64-6.872-56.533-19.872-80.664-8.107-15.048-18.355-28.239-30.255-39.061 26.997-12.995 51.993-35.246 72.339-64.805 24.344-35.368 38.878-77.039 38.878-111.47 0-13.255-10.745-24-24-24zM115.037 16h281.926c-4.613 19.67-14.26 41.192-27.381 60.255-20.727 30.113-46.588 49.811-72.819 55.463-11.053 2.382-18.944 12.155-18.944 23.462v17.146c0 8.63 4.633 16.595 12.135 20.861 29.739 16.916 48.956 54.133 48.956 94.813 0 57.346-37.192 104-82.909 104s-82.909-46.654-82.909-104c0-40.68 19.217-77.896 48.957-94.813 7.501-4.267 12.134-12.231 12.134-20.861v-17.146c0-11.307-7.892-21.080-18.944-23.462-26.231-5.652-52.092-25.35-72.82-55.463-13.123-19.063-22.768-40.585-27.382-60.255z" />
<glyph unicode="&#xe60d;" d="M488-32h-336c-13.255 0-24 10.745-24 24 0 34.431 14.534 76.102 38.879 111.471 20.346 29.559 45.342 51.81 72.339 64.805-11.899 10.822-22.147 24.013-30.254 39.061-13 24.131-19.873 52.024-19.873 80.664 0 39.803 13.102 77.411 36.893 105.895 24.832 29.73 58.221 46.104 94.016 46.104s69.184-16.374 94.017-46.105c23.79-28.484 36.893-66.091 36.893-105.895 0-28.64-6.872-56.533-19.872-80.664-8.107-15.048-18.355-28.239-30.255-39.061 26.997-12.995 51.993-35.246 72.339-64.805 24.344-35.368 38.878-77.039 38.878-111.47 0-13.255-10.745-24-24-24zM179.037 16h281.926c-4.613 19.67-14.26 41.192-27.381 60.255-20.727 30.113-46.588 49.811-72.819 55.463-11.053 2.382-18.944 12.155-18.944 23.462v17.146c0 8.63 4.633 16.595 12.135 20.861 29.739 16.916 48.956 54.133 48.956 94.813 0 57.346-37.192 104-82.909 104s-82.909-46.654-82.909-104c0-40.68 19.217-77.896 48.957-94.813 7.501-4.267 12.134-12.231 12.134-20.861v-17.146c0-11.307-7.892-21.080-18.944-23.462-26.231-5.652-52.092-25.35-72.82-55.463-13.123-19.063-22.768-40.585-27.382-60.255zM98.557 48h-47.52c4.614 19.67 14.259 41.192 27.38 60.255 20.728 30.113 46.589 49.811 72.82 55.463 11.053 2.382 18.944 12.155 18.944 23.462v17.146c0 8.63-4.633 16.595-12.134 20.861-29.74 16.917-48.957 54.133-48.957 94.813 0 57.346 37.192 104 82.909 104 3.127 0 6.213-0.226 9.251-0.651 13.179 14.667 28.117 26.587 44.321 35.502-16.596 8.616-34.75 13.149-53.571 13.149-35.795 0-69.184-16.374-94.017-46.105-23.79-28.484-36.892-66.092-36.892-105.895 0-28.64 6.872-56.533 19.873-80.664 8.107-15.048 18.355-28.238 30.254-39.061-26.997-12.995-51.993-35.246-72.339-64.805-24.345-35.368-38.879-77.039-38.879-111.47 0-13.255 10.745-24 24-24h66.193c0.738 15.513 3.599 31.706 8.364 48z" />
<glyph unicode="&#xe60e;" d="M501.467 71.062l-230.276 197.38c10.724 20.149 16.809 43.141 16.809 67.558 0 79.529-64.471 144-144 144-14.547 0-28.586-2.166-41.823-6.177l83.195-83.195c12.445-12.445 12.445-32.81 0-45.255l-50.745-50.745c-12.445-12.445-32.81-12.445-45.255 0l-83.195 83.195c-4.011-13.237-6.177-27.276-6.177-41.823 0-79.529 64.471-144 144-144 24.417 0 47.409 6.085 67.558 16.81l197.38-230.276c11.454-13.362 31.008-14.113 43.452-1.669l50.746 50.746c12.444 12.444 11.693 31.997-1.669 43.451z" />
<glyph unicode="&#xe60f;" d="M466.895 174.875c-26.863 46.527-10.708 106.152 36.076 133.244l-50.313 87.146c-14.375-8.427-31.088-13.259-48.923-13.259-53.768 0-97.354 43.873-97.354 97.995h-100.629c0.133-16.705-4.037-33.641-12.979-49.126-26.862-46.528-86.578-62.351-133.431-35.379l-50.312-87.146c14.485-8.236 27.025-20.294 35.943-35.739 26.819-46.454 10.756-105.96-35.854-133.112l50.313-87.146c14.325 8.348 30.958 13.127 48.7 13.127 53.598 0 97.072-43.596 97.35-97.479h100.627c-0.043 16.537 4.136 33.285 12.983 48.609 26.818 46.453 86.388 62.297 133.207 35.506l50.313 87.145c-14.39 8.233-26.846 20.249-35.717 35.614zM256 120.334c-57.254 0-103.668 46.412-103.668 103.667 0 57.254 46.413 103.667 103.668 103.667s103.666-46.413 103.666-103.667c-0.001-57.255-46.412-103.667-103.666-103.667z" />
<glyph unicode="&#xe610;" d="M181.861 118.974l20.649 28.908-22.627 22.628-28.909-20.648c-5.361 2.997-11.102 5.387-17.133 7.096l-5.841 35.042h-32l-5.84-35.043c-6.031-1.709-11.772-4.099-17.133-7.096l-28.909 20.649-22.628-22.628 20.649-28.908c-2.997-5.36-5.387-11.103-7.096-17.133l-35.043-5.841v-32l35.043-5.841c1.709-6.030 4.099-11.772 7.096-17.133l-20.649-28.908 22.627-22.628 28.909 20.648c5.361-2.997 11.102-5.387 17.133-7.096l5.841-35.042h32l5.84 35.043c6.031 1.709 11.772 4.099 17.133 7.096l28.909-20.648 22.627 22.628-20.649 28.908c2.997 5.36 5.387 11.103 7.096 17.133l35.044 5.84v32l-35.043 5.841c-1.709 6.030-4.099 11.772-7.096 17.133zM112 48c-17.674 0-32 14.327-32 32s14.326 32 32 32 32-14.327 32-32-14.326-32-32-32zM512 288v32l-33.691 6.125c-0.621 4.023-1.416 7.989-2.362 11.895l28.779 18.55-12.246 29.564-33.472-7.234c-2.107 3.455-4.363 6.81-6.746 10.065l19.503 28.171-22.628 22.627-28.171-19.503c-3.256 2.383-6.61 4.638-10.065 6.747l7.234 33.472-29.564 12.247-18.55-28.779c-3.906 0.946-7.872 1.741-11.895 2.362l-6.126 33.691h-32l-6.126-33.691c-4.023-0.621-7.988-1.416-11.895-2.362l-18.549 28.779-29.564-12.246 7.234-33.472c-3.455-2.108-6.81-4.364-10.065-6.747l-28.171 19.503-22.627-22.627 19.503-28.171c-2.383-3.255-4.639-6.61-6.747-10.065l-33.472 7.234-12.246-29.564 28.779-18.55c-0.946-3.906-1.741-7.871-2.362-11.895l-33.692-6.126v-32l33.691-6.125c0.621-4.023 1.416-7.989 2.362-11.895l-28.779-18.55 12.246-29.564 33.472 7.234c2.108-3.455 4.364-6.809 6.747-10.065l-19.503-28.171 22.627-22.628 28.171 19.503c3.255-2.383 6.61-4.638 10.065-6.746l-7.234-33.472 29.564-12.246 18.551 28.779c3.905-0.946 7.871-1.741 11.894-2.362l6.126-33.692h32l6.126 33.691c4.022 0.621 7.988 1.416 11.895 2.362l18.55-28.779 29.564 12.246-7.234 33.472c3.455 2.108 6.81 4.363 10.065 6.746l28.171-19.503 22.628 22.628-19.503 28.171c2.383 3.256 4.638 6.61 6.746 10.065l33.472-7.234 12.246 29.565-28.779 18.55c0.946 3.906 1.741 7.871 2.362 11.895l33.691 6.125zM336 234.4c-38.439 0-69.6 31.161-69.6 69.6s31.16 69.6 69.6 69.6 69.6-31.161 69.6-69.6c0-38.439-31.16-69.6-69.6-69.6z" />
<glyph unicode="&#xe611;" d="M512 175.953v96.094l-73.387 12.231c-2.979 9.066-6.611 17.834-10.847 26.25l43.227 60.517-67.948 67.949-60.413-43.152c-8.455 4.277-17.269 7.944-26.384 10.951l-12.201 73.207h-96.094l-12.201-73.208c-9.115-3.007-17.929-6.674-26.383-10.951l-60.414 43.152-67.949-67.949 43.227-60.518c-4.235-8.415-7.867-17.183-10.846-26.249l-73.387-12.23v-96.094l73.559-12.26c2.98-8.984 6.605-17.674 10.821-26.015l-43.374-60.724 67.949-67.948 60.827 43.447c8.301-4.175 16.945-7.764 25.882-10.717l12.289-73.736h96.094l12.289 73.737c8.937 2.953 17.581 6.542 25.883 10.716l60.826-43.446 67.948 67.948-43.372 60.723c4.216 8.341 7.839 17.031 10.82 26.016l73.559 12.259zM256 160c-35.346 0-64 28.653-64 64s28.654 64 64 64c35.347 0 64-28.654 64-64s-28.653-64-64-64z" />
<glyph unicode="&#xe612;" d="M426.655 480h-341.31c-46.94 0-85.345-38.392-85.345-85.329v-341.328c0-46.938 38.405-85.343 85.345-85.343h341.311c46.969 0 85.344 38.405 85.344 85.343v341.328c0 46.937-38.375 85.329-85.345 85.329zM128 352h256c4.569 0 9.002-0.981 13.072-2.831l-141.072-164.584-141.072 164.585c4.070 1.848 8.503 2.83 13.072 2.83zM96 128v192c0 0.67 0.028 1.336 0.070 2l93.832-109.47-92.799-92.8c-0.722 2.669-1.103 5.443-1.103 8.27zM384 96h-256c-2.827 0-5.601 0.381-8.27 1.103l91.059 91.059 45.211-52.748 45.212 52.747 91.058-91.059c-2.67-0.721-5.443-1.102-8.27-1.102zM416 128c0-2.827-0.381-5.6-1.103-8.27l-92.799 92.799 93.832 109.471c0.042-0.664 0.070-1.33 0.070-2v-192z" />
<glyph unicode="&#xe613;" d="M256 480c-141.385 0-256-114.615-256-256s114.615-256 256-256 256 114.615 256 256-114.615 256-256 256zM128 352h256c4.569 0 9.002-0.981 13.072-2.831l-141.072-164.584-141.072 164.585c4.070 1.848 8.503 2.83 13.072 2.83zM96 128v192c0 0.67 0.028 1.336 0.070 2l93.832-109.471-92.799-92.799c-0.722 2.668-1.103 5.443-1.103 8.27zM384 96h-256c-2.827 0-5.601 0.381-8.27 1.104l91.059 91.059 45.211-52.749 45.212 52.747 91.058-91.060c-2.67-0.72-5.443-1.101-8.27-1.101zM416 128c0-2.827-0.381-5.6-1.103-8.27l-92.8 92.799 93.833 109.471c0.042-0.664 0.070-1.33 0.070-2v-192z" />
<glyph unicode="&#xe614;" d="M287.935-32h-95.935v256h-64v88.225l64 0.029-0.104 51.976c0 71.976 19.517 115.77 104.299 115.77h70.588v-88.242h-44.115c-33.016 0-34.603-12.328-34.603-35.342l-0.131-44.162h79.345l-9.352-88.225-69.927-0.029-0.065-256z" />
<glyph unicode="&#xe615;" d="M426.672 480h-341.33c-46.936 0-85.342-38.407-85.342-85.344v-341.313c0-46.969 38.406-85.343 85.342-85.343l341.33 0.001c46.938 0 85.328 38.373 85.328 85.344v341.311c0 46.937-38.391 85.344-85.328 85.344zM435.296 224h-83.296v-224h-96v224h-46.263v73.282h46.263v47.593c0 64.671 27.896 103.125 103.935 103.125h87.622v-79.285h-71.565c-21.241 0.035-23.876-11.076-23.876-31.756l-0.116-39.677h96l-12.704-73.282z" />
<glyph unicode="&#xe616;" d="M256 480c141.385 0 256-114.615 256-256 0-130.547-97.719-238.265-224-254.013v190.013h88l8 64h-96v32c0 17.673 14.327 32 32 32h64v64h-64c-53.020 0-96-42.98-96-96v-32h-48v-64h48v-190.013c-126.281 15.748-224 123.466-224 254.013 0 141.385 114.615 256 256 256z" />
<glyph unicode="&#xe617;" d="M206.115 224.043c-23.854 12.259-47.043 18.479-68.94 18.479-2.978 0-5.976-0.090-8.974-0.354-27.94-2.312-53.461-9.684-69.875-15.414-4.354-1.599-8.817-3.288-13.415-5.153l-44.911-155.697c30.851 11.416 58.146 16.969 83.135 16.969 40.423 0 69.764-15.104 93.996-30.652 11.481 38.959 39.022 133.045 47.241 161.162-5.975 3.642-12.038 7.285-18.257 10.66zM264.174 184.465l-45.223-157.074c13.416-7.686 58.549-32.025 93.106-32.025 27.896 0 59.126 7.148 95.417 21.896l43.178 150.988c-29.316-9.461-57.438-14.26-83.732-14.26-47.975 0-81.557 15.549-102.746 30.475zM146.411 295.605c38.559-0.399 67.076-15.104 90.708-30.251l46.376 158.672c-9.773 5.598-35.403 19.547-53.929 24.3-12.193 2.842-25.010 4.308-38.602 4.308-25.898-0.488-54.194-6.973-86.444-19.9l-44.22-155.298c32.404 12.218 60.322 18.17 86.043 18.17 0.023-0.001 0.068-0.001 0.068-0.001zM512 380.938c-29.407-11.416-58.104-17.233-85.514-17.233-45.843 0-79.646 15.901-101.547 31.183l-45.975-159.118c30.873-19.854 64.145-29.939 99.061-29.939 28.474 0 57.97 6.84 87.731 20.344l-0.091 1.111 1.867 0.443 44.468 153.209z" />
<glyph unicode="&#xe618;" d="M0.175 224l-0.175 156.037 192 26.072v-182.109zM224 410.759l255.936 37.241v-224h-255.936zM479.999 192l-0.063-224-255.936 36.008v187.992zM192 8.082l-191.844 26.297-0.010 157.621h191.854z" />
<glyph unicode="&#xe619;" d="M487.655 191.031c1.406 10.4 2.215 20.973 2.215 31.736 0 129.155-105.271 233.872-235.103 233.872-12.904 0-25.555-1.060-37.866-3.080-22.072 14.384-48.342 22.767-76.612 22.767-77.523 0-140.289-62.808-140.289-140.306 0-28.198 8.299-54.394 22.59-76.389-1.925-12.017-2.909-24.323-2.909-36.859 0-129.176 105.217-233.882 235.085-233.882 14.657 0 28.927 1.427 42.796 3.933 21.55-13.369 46.934-21.148 74.146-21.148 77.502-0.001 140.292 62.823 140.292 140.313-0.003 29.293-8.96 56.528-24.345 79.043zM276.74 50.404c-74.705-3.892-109.664 12.637-141.689 42.691-35.765 33.567-21.398 71.854 7.74 73.801 29.122 1.944 46.607-33.013 62.15-42.736 15.524-9.688 74.594-31.76 105.794 3.908 33.976 38.828-22.594 58.92-64.059 65.002-59.203 8.766-133.95 40.792-128.135 103.907 5.816 63.074 53.582 95.414 103.85 99.976 64.077 5.817 105.791-9.707 138.785-37.86 38.15-32.529 17.508-68.894-6.799-71.82-24.212-2.909-51.404 53.504-104.791 54.352-55.027 0.864-92.217-57.261-24.286-73.784 67.966-16.505 140.75-23.286 166.961-85.417 26.229-62.137-40.754-128.125-115.521-132.020z" />
<glyph unicode="&#xe61a;" d="M128 160c0 17.673 14.327 32 32 32s32-14.327 32-32c0-17.673-14.327-32-32-32s-32 14.327-32 32zM320 160c0 17.673 14.327 32 32 32s32-14.327 32-32c0-17.673-14.327-32-32-32s-32 14.327-32 32zM321.556 91.611c8.241 6.493 20.188 5.077 26.682-3.166s5.076-20.189-3.167-26.683c-22.948-18.079-57.911-29.762-89.071-29.762s-66.124 11.683-89.072 29.761c-8.243 6.495-9.66 18.441-3.166 26.684 6.495 8.241 18.441 9.659 26.683 3.166 13.211-10.409 39.361-21.611 65.555-21.611s52.344 11.202 65.556 21.611zM512 224c0 35.346-28.654 64-64 64-24.058 0-44.996-13.285-55.926-32.91-32.896 17.997-72.976 29.623-116.64 32.304l38.191 85.763 73.097-21.1c6.576-18.671 24.359-32.057 45.278-32.057 26.51 0 48 21.49 48 48s-21.49 48-48 48c-18.28 0-34.171-10.221-42.277-25.257l-81.453 23.512c-9.112 2.629-18.769-1.861-22.626-10.526l-51.885-116.513c-42.569-2.998-81.631-14.511-113.818-32.118-10.932 19.625-31.883 32.902-55.941 32.902-35.346 0-64-28.654-64-64 0-26.156 15.701-48.627 38.186-58.551-4.035-12.014-6.186-24.552-6.186-37.449 0-88.365 100.288-160 224-160s224 71.635 224 160c0 12.896-2.15 25.431-6.184 37.443 22.485 9.925 38.184 32.401 38.184 58.557zM432 386c9.941 0 18-8.059 18-18s-8.059-18-18-18-18 8.059-18 18 8.059 18 18 18zM32 224c0 17.645 14.355 32 32 32 12.754 0 23.786-7.502 28.923-18.323-16.724-12.683-30.583-27.313-40.833-43.369-11.762 4.735-20.090 16.256-20.090 29.692zM256 6c-102.725 0-186 54.621-186 122s83.275 122 186 122c102.725 0 186-54.621 186-122s-83.275-122-186-122zM459.91 194.308c-10.25 16.056-24.109 30.686-40.833 43.369 5.138 10.821 16.169 18.323 28.923 18.323 17.645 0 32-14.355 32-32 0-13.436-8.328-24.957-20.090-29.692z" />
<glyph unicode="&#xe61b;" d="M169.5 389.175c-9.75-1.2-21-7.8-21-12.3 0-3.075 3.225-3.3 6.825-0.45 1.65 1.35 4.875 3.3 7.275 4.425 3.675 1.725 5.25 2.025 11.4 2.025 6.6 0 7.575-0.225 12.15-2.475 11.4-5.625 18-18.375 15.6-30.375-0.975-5.1-3.375-10.35-6.3-13.875-2.625-3.075-2.625-5.925 0.075-6.6 1.725-0.45 2.4-0.075 4.5 2.4 11.775 13.65 11.175 34.2-1.425 46.95-7.875 8.025-18.225 11.625-29.1 10.275zM165.375 373.2c-6.45-3.075-8.4-5.775-5.925-8.25 1.575-1.65 2.025-1.575 5.85 1.125 6.15 4.35 14.325 3.525 19.125-1.95 2.1-2.4 3.825-6.675 3.825-9.375 0-2.55-1.65-6.825-3.45-9-2.625-3.075-2.025-6 1.2-6 3.975 0 8.25 8.325 8.25 15.9 0 7.35-6.975 16.575-14.1 18.6-4.8 1.275-10.65 0.9-14.775-1.050zM142.2 362.85c-3.75-5.55-5.025-9.75-5.025-16.35 0-6.45 1.35-11.625 4.125-15.825 1.050-1.575 1.95-3.15 1.95-3.525s-2.55-2.925-5.625-5.7l-5.625-5.025v-14.925h-47.25v-66h-8.25v-18h8.25v-15.75h28.125l1.8-3.375c5.625-10.65 20.475-15.075 31.575-9.375 3.375 1.725 8.25 6.525 10.125 10.050l1.5 2.7h72.975l1.875-3.15c6.3-10.725 19.2-14.925 30.675-10.125 3.6 1.5 8.475 6.075 10.875 10.050l1.875 3.225h31.35v53.25h-47.025l-26.85 46.5h-88.125v7.8c0 7.8 0 7.8 2.25 9.75l2.25 1.875 4.050-1.875c5.925-2.7 11.775-3.6 17.25-2.625 5.1 0.9 12.9 4.425 15.075 6.825 1.425 1.575 1.275 1.725-19.5 22.5-11.55 11.55-21.225 21-21.45 21-0.3 0-1.725-1.8-3.225-3.9zM143.625 288.75c5.55-2.7 10.275-7.425 12.975-13.35 1.575-3.45 1.95-5.4 1.95-9.9 0-6.6-1.050-10.2-4.5-15.375-3.15-4.725-6.825-7.65-12.6-9.975-3.825-1.575-5.4-1.8-10.5-1.5-10.2 0.6-18 5.625-22.725 14.85-1.875 3.675-2.1 4.95-2.1 11.25 0 6.075 0.3 7.725 1.95 11.25 6.3 13.5 22.125 19.125 35.55 12.75zM228.9 282.375c2.925-4.95 7.575-12.975 10.425-17.775l5.1-8.85h-51.675v36l15.45-0.15 15.525-0.225 5.175-9zM140.85 223.875c7.725-3.3 11.175-11.925 7.725-19.5-6.15-13.5-26.475-10.2-27.675 4.5-0.375 5.025 0.75 8.475 3.825 11.475 4.875 4.725 10.35 5.925 16.125 3.525zM260.25 223.35c1.95-1.050 4.275-3.075 5.625-4.95 1.95-2.775 2.25-3.975 2.25-8.025s-0.3-5.25-2.25-8.025c-6.225-8.925-19.050-8.7-24.675 0.375-7.725 12.525 5.85 27.3 19.050 20.625zM121.2 273.3c-0.225-0.675-0.45-2.475-0.45-4.125v-2.925h10.5v8.25h-4.8c-3.675 0-4.875-0.3-5.25-1.2zM120.9 259.725l0.225-4.35h9.75v8.25l-10.2 0.45 0.225-4.35zM133.5 259.5v-4.5h9.525l0.525 2.85c0.975 6.225 1.050 6.15-4.8 6.15h-5.25v-4.5z" />
<glyph unicode="&#xe61c;" d="M240.876 18.944v0c-35.939 0-70.321 9.078-101.711 26.624-33.359-15.281-55.926-44.288-55.926-77.568h230.006c0 20.559-15.084 44.308-33.379 54.508-12.524-2.264-25.541-3.565-38.991-3.565zM315.077 283.077c0-21.751-17.633-39.385-39.385-39.385s-39.385 17.633-39.385 39.385c0 21.751 17.633 39.385 39.385 39.385s39.385-17.633 39.385-39.385zM328.606 249.363c-8.31-6.715-18.058-29.282-13.45-37.041 21.878-36.904 28.16-69.849 12.899-85.091-23.493-23.493-89.029 3.919-146.333 61.224-57.344 57.325-84.755 122.821-61.224 146.353 14.375 14.395 44.623 9.649 79.064-9.413 8.054-4.451 30.936 5.376 37.514 13.784-60.16 41.078-120.32 52.992-148.677 24.635-36.667-36.667-91.313-147.555 14.888-253.775 97.142-97.162 217.068-51.574 253.755-14.907 29.243 29.243 15.774 92.298-28.435 154.23z" />
<glyph unicode="&#xe61d;" d="M48.375 298.937c0-55.563 21.656-107.813 61-147.125l-33.938-33.938c-48.406 48.376-75.062 112.688-75.062 181.063s26.625 132.688 75 181l33.938-33.937c-39.313-39.25-60.938-91.5-60.938-147.063zM182.813 372.5l-33.938 33.938c-28.688-28.75-44.5-66.938-44.5-107.5 0-40.625 15.813-78.813 44.563-107.5l33.938 33.938c-19.688 19.625-30.5 45.75-30.5 73.563-0.001 27.748 10.812 53.873 30.437 73.561zM437.313 480l-33.938-33.938c39.344-39.313 61-91.563 61-147.125s-21.625-107.813-60.906-147.125l33.938-33.938c48.344 48.375 74.969 112.688 74.969 181.063-0.001 68.438-26.657 132.75-75.063 181.063zM256.375 346.937c-26.5 0-48-21.5-48-48 0-17.75 9.719-33.063 24-41.344v-289.593h48v289.562c14.281 8.313 24 23.625 24 41.375 0 26.5-21.469 48-48 48zM363.813 406.437l-33.938-33.937c19.656-19.688 30.5-45.813 30.5-73.563 0-27.813-10.813-53.938-30.438-73.563l33.938-33.938c28.688 28.688 44.5 66.875 44.5 107.5s-15.812 78.751-44.562 107.501z" />
<glyph unicode="&#xe61e;" d="M383.452 221.358l-18.668 18.681c61.012 61.026 60.997 160.282-0.029 221.293l18.696 18.668c71.32-71.291 71.32-187.351 0-258.642zM332.474 272.336l18.668-18.711c53.504 53.519 53.504 140.589 0 194.079l-18.668-18.668c43.196-43.181 43.196-113.519 0-156.701zM317.834 286.975c35.14 35.125 35.14 92.311-0.014 127.422l-18.668-18.667c24.861-24.861 24.861-65.271 0-90.074l18.681-18.681zM72.186 461.332l-18.696 18.668c-71.305-71.291-71.305-187.351 0-258.642l18.668 18.681c-61.011 60.997-60.997 160.267 0.029 221.293zM85.772 253.625l18.681 18.711c-43.196 43.181-43.196 113.476 0 156.701l-18.681 18.681c-53.504-53.489-53.504-140.575 0-194.093zM119.093 286.975l18.681 18.681c-24.832 24.846-24.832 65.256 0.014 90.074l-18.681 18.667c-35.14-35.154-35.14-92.311-0.014-127.422zM325.861 22.948h-64.231l-38.519 278.334c17.946 2.31 31.863 17.469 31.863 36.050 0 20.154-16.358 36.497-36.512 36.497-20.168 0-36.512-16.357-36.512-36.497 0-18.581 13.917-33.74 31.849-36.050l-38.504-278.334h-64.231c-15.174 0-27.459-12.315-27.459-27.459 0-15.173 12.3-27.474 27.459-27.474h214.811c15.173 0 27.459 12.315 27.459 27.474 0 15.144-12.286 27.459-27.474 27.459z" horiz-adv-x="437" />
<glyph unicode="&#xe61f;" d="M0 448v-448c0-17.664 14.336-32 32-32h32v512h-32c-17.664 0-32-14.336-32-32zM416 480h-320v-512h320c17.664 0 32 14.336 32 32v448c0 17.664-14.336 32-32 32zM270.24 356.672c26.752 0 48.416-21.696 48.416-48.416 0-26.752-21.728-48.448-48.416-48.448-26.752 0-48.448 21.696-48.448 48.448s21.696 48.416 48.448 48.416zM192 134.176c0 58.688 35.488 106.24 79.232 106.24s79.232-47.616 79.232-106.24c0-58.688-158.464-58.688-158.464 0zM480 448h32v-96h-32v96zM480 320h32v-96h-32v96zM480 192h32v-96h-32v96z" />
<glyph unicode="&#xe620;" d="M424.32 291.518v31.36h-38.4v31.043h-30.72v40.32h-31.36v-40.32h-49.28v40.32h-31.36v-40.32h-54.4v40.32h-31.36v-40.32h-31.36v-31.042h-42.24v-31.36h42.24v-49.28h-42.24v-31.36h42.24v-54.4h-42.24v-31.36h42.24v-31.043h31.36v-40.32h31.36v40.32h54.4v-40.32h31.36v40.32h49.28v-40.32h31.36v40.32h30.72v31.043h38.4v31.36h-38.4v54.4h38.4v31.36h-38.4v49.28h38.4zM385.92 312.637h28.16v-10.88h-28.16v10.88zM126.080 135.358h-32v10.88h32v-10.88zM126.080 221.118h-32v10.88h32v-10.88zM126.080 301.757h-32v10.88h32v-10.88zM178.56 64h-10.88v30.080h10.88v-30.080zM178.56 353.92h-10.88v30.080h10.88v-30.080zM253.44 384h10.88v-30.080h-10.88v30.080zM264.32 64h-10.88v30.080h10.88v-30.080zM314.363 165.637h-116.726v116.726h116.731v-116.726zM334.080 384h10.88v-30.080h-10.88v30.080zM344.96 64h-10.88v30.080h10.88v-30.080zM340.48 292.505c-8.115 0-14.695 6.579-14.695 14.695s6.579 14.694 14.695 14.694 14.695-6.579 14.695-14.694-6.579-14.695-14.695-14.695zM414.080 146.238v-10.88h-28.16v10.88h28.16zM414.080 231.998v-10.88h-28.16v10.88h28.16z" />
<glyph unicode="&#xe621;" d="M96.3 476.4c-1.95-1.050-4.8-3.9-6.45-6.3-2.55-3.9-2.85-7.2-2.85-28.8v-24.45l33.75 0.9v24.15c0 26.25-0.75 29.7-8.25 34.050-4.95 3-11.4 3.15-16.2 0.45zM152.7 475.95c-7.2-4.5-7.95-7.95-7.95-34.050v-24.15l33.75-0.9v23.55c0 18.6-0.45 24.45-2.4 28.5-4.2 9-15.15 12.15-23.4 7.050zM211.2 475.050c-6.3-5.1-7.2-9.75-7.2-34.95v-23.25l33.75 0.9v24.15c0 26.25-0.75 29.7-8.25 34.050-6 3.6-13.5 3.15-18.3-0.9zM270.3 476.55c-7.65-4.35-8.55-7.5-9-34.35l-0.6-25.2h34.8v24.45c0 21.45-0.3 24.75-2.85 28.65-5.25 7.95-14.7 10.65-22.35 6.45zM8.7 390.6c-10.65-5.7-11.4-21.9-1.35-28.65 3.3-2.25 8.1-2.85 29.1-3.15l25.050-0.6v34.8h-24.3c-18.75-0.15-25.35-0.6-28.5-2.4zM324 375.75v-17.25h21.6c25.2 0 29.55 0.6 34.65 5.4 3 2.85 3.75 4.8 3.75 11.1 0 16.050-3.9 18-36 18h-24v-17.25zM87.3 286.95l0.45-104.7h207l0.45 104.7 0.3 104.55h-208.5l0.3-104.55zM157.2 309.6c2.55-0.75 3.3-2.1 3.3-5.85v-4.8l-5.7 1.5c-4.5 1.2-6.75 1.050-11.25-1.2-18.6-8.7-8.7-36.45 11.1-31.2 5.85 1.5 5.85 1.5 5.85-2.85 0-3.15-0.9-4.65-3.9-5.7-9.9-3.75-21.15-0.6-28.8 8.1-4.2 4.95-4.8 6.45-4.8 14.55 0 4.95 0.9 10.8 2.1 13.050 5.85 11.25 20.1 17.55 32.1 14.4zM199.35 306.9c4.65-2.55 7.65-8.1 7.65-14.55 0-7.2-8.1-14.4-17.7-15.75l-7.65-0.9-0.45-7.8c-0.45-7.5-0.6-7.65-5.25-8.1l-4.95-0.45v49.65h12c7.65 0 13.65-0.75 16.35-2.1zM225 294.9c0-7.65 0.45-16.2 0.9-18.75 1.2-6 6.6-9.9 12-8.55 5.85 1.5 8.1 8.85 8.1 26.4v15h10.5v-13.8c-0.15-7.65-0.75-16.95-1.35-20.7-2.55-12.45-15.15-19.2-27.75-14.85-9.9 3.6-11.85 7.65-12.6 27.45-0.45 9.45-0.3 18.3 0.15 19.65 0.6 1.35 2.85 2.25 5.55 2.25h4.5v-14.1zM9.6 333.6c-8.85-4.35-12.3-16.050-7.050-24.15 4.35-6.6 10.2-7.95 35.7-7.95h23.25v34.5h-23.55c-18 0-24.75-0.6-28.35-2.4zM324 318.6v-17.25l25.35 0.45c23.1 0.45 25.8 0.75 29.7 3.6 3.6 2.7 4.2 4.35 4.65 11.55 0.9 16.65-3.75 19.050-36.3 19.050h-23.4v-17.4zM8.85 273.75c-8.55-4.65-11.25-15-6.3-23.4 4.5-7.65 9.6-8.85 35.55-8.85h23.4v34.5h-24.3c-18.15-0.15-25.5-0.6-28.35-2.25zM324 258.75v-17.25h23.4c32.7 0 37.2 2.4 36.3 19.050-0.45 7.95-0.9 8.85-5.55 12-4.8 3.3-6.6 3.45-29.55 3.45h-24.6v-17.25zM13.5 217.95c-12.15-3.9-16.65-13.95-11.25-24.45 4.050-7.8 8.55-9 35.25-9h24v34.5l-22.8-0.15c-12.6 0-24-0.45-25.2-0.9zM324 201.75v-17.25h24c32.1 0 36 1.95 36 18 0 6.3-0.75 8.25-3.75 11.1-5.1 4.8-9.45 5.4-34.65 5.4h-21.6v-17.25zM87 133.5c0-18.15 0.6-25.2 2.1-28.35 5.25-10.050 18.45-12.45 26.25-4.65 5.55 5.7 6.45 11.1 5.85 36.75l-0.45 19.5-33.75 0.9v-24.15zM145.050 156.45c-0.6-0.45-1.050-11.1-1.050-23.4 0-17.55 0.45-23.4 2.4-27.45 4.35-9 16.050-12.3 24.15-7.050 6.6 4.35 7.95 10.2 7.95 35.7v23.25h-16.2c-9 0-16.8-0.45-17.25-1.050zM204 133.5c0-25.8 1.050-30.45 7.8-35.1 4.35-3.15 12.45-3 17.85 0.15 7.8 4.65 9 9.75 8.55 35.25l-0.45 22.95-33.75 0.9v-24.15zM261 135.9c0-26.1 0.6-29.85 6.3-35.55 7.65-7.65 20.85-5.25 26.1 4.8 1.5 3.15 2.1 10.2 2.1 28.35v24h-34.5v-21.6z" />
<glyph unicode="&#xe622;" d="M4.5 434.1c-6.075-3.225-2.7-11.85 12.9-33.15 13.050-17.85 37.725-47.55 56.775-68.55 4.875-5.25 7.35-8.55 6.675-8.775-0.525-0.15-8.55-2.925-17.85-6-28.2-9.525-57.975-19.725-60.6-20.625l-2.4-0.9v-23.325l4.725 4.425c3.75 3.6 5.775 4.875 10.5 6.6 3.225 1.2 6 2.025 6.075 1.875 0.15-0.15-0.675-2.625-1.8-5.55-3.45-8.625-1.8-8.25 7.425 1.725l8.175 8.775 7.275 2.475c4.050 1.35 7.425 2.325 7.575 2.25 0.075-0.15-1.275-2.7-3.15-5.775-5.775-9.6-4.35-10.050 4.575-1.5 3.525 3.375 6.375 5.85 6.375 5.55 0-0.375-2.175-10.425-4.8-22.425-2.7-12-6.6-29.925-8.775-39.825s-4.125-18.225-4.425-18.525c-0.6-0.825-13.050 6.3-27.15 15.6-6.525 4.275-12.075 7.8-12.3 7.8-0.15 0-0.225-8.55-0.15-18.9l0.225-18.975 9.375-5.85c5.175-3.15 11.85-7.35 14.85-9.3l5.4-3.45v-5.325c0-2.925-0.675-8.85-1.5-13.2-2.4-12.975-1.2-11.55-9.45-10.95-3.9 0.3-9.825 0.975-13.125 1.5l-5.925 0.975v-14.175c0-13.95 0-14.1 1.65-14.4 3.9-0.825 18-1.95 30.225-2.475 11.55-0.375 13.125-0.6 12.75-1.65-0.15-0.675-1.050-4.575-1.95-8.7-2.475-11.7-2.85-13.425-2.925-14.4 0-0.75 2.55-0.975 10.425-0.975 9.375 0 10.5 0.15 10.8 1.35 0.225 0.675 0.75 2.775 1.125 4.65 2.625 10.95 3.15 12.975 3.45 13.275 0.15 0.15 2.325-0.225 4.8-0.825 2.475-0.675 5.7-1.2 7.125-1.2 2.4 0 2.625-0.225 3.075-2.85 0.225-1.5 0.45-4.65 0.45-6.9 0-7.275 0.225-7.5 5.85-7.5h4.875l-0.45 9.3-0.45 9.225 3.15 0.9c4.35 1.275 12.3 6.075 16.95 10.275 5.925 5.325 12.375 14.925 15.45 23.025 1.125 3 1.65 3.6 2.925 3.225 5.775-1.425 26.175-2.925 40.2-3 13.050-0.075 16.95 0.15 20.55 1.2 7.575 2.175 9.9 5.55 9.075 13.35-0.45 4.050-0.9 5.175-2.925 7.2-2.925 2.925-10.050 4.725-21.225 5.325-6.675 0.375-7.725 0.6-7.725 1.8 0 1.125 1.575 10.2 7.8 44.55 0.6 3.3 1.275 7.275 1.575 8.85 0.45 2.625 0.6 2.85 1.875 1.875 0.75-0.525 5.4-3.675 10.275-6.975s9.075-6.3 9.375-6.75c0.3-0.375 0.6-5.175 0.6-10.65 0-5.4 0.3-10.050 0.675-10.275s0.525-1.050 0.3-1.875c-0.525-2.1 3-14.625 6.3-22.35 4.050-9.225 9.15-16.8 16.125-23.625l5.85-5.775-1.425-5.475c-2.625-10.125-8.475-31.725-9.9-36.675-0.75-2.7-1.425-5.325-1.425-5.85 0-0.6 3.75-0.825 12.975-0.825h12.975l5.1 18.225c2.775 9.975 5.25 18.6 5.4 19.125 0.15 0.6 2.25 0.9 6.975 0.9h6.675l0.525-5.775c0.225-3.225 0.75-9.225 1.125-13.35s0.9-10.125 1.125-13.275l0.525-5.85h12.675l-0.45 3.225c-0.45 3.45-1.65 19.2-2.4 30.9l-0.45 7.5 3.675 1.8c12.375 5.925 24.675 19.2 31.125 33.6 1.275 2.775 2.4 5.175 2.475 5.25 0.15 0.15 3.75-0.225 8.025-0.825 20.625-2.85 50.475-3.45 57.9-1.2l2.775 0.825v10.8c0 5.925-0.3 10.95-0.675 11.175-1.875 1.2-12.825 2.85-21.225 3.225-9.3 0.45-9.6 0.525-9.6 2.1 0 1.8 5.775 49.875 11.55 96 1.875 14.85 5.475 43.725 7.95 64.125s4.65 38.325 4.875 39.75c0.375 2.25 0.9 2.85 3.825 4.050l3.375 1.35-0.45 13.65-2.475 0.75c-3.225 0.9-4.35 0.6-30.9-8.55-24-8.25-96.45-33-147.375-50.25-10.725-3.675-33.525-11.4-50.625-17.25s-33.525-11.4-36.525-12.45c-2.925-0.975-5.85-1.8-6.45-1.8-2.175 0-34.8 34.725-57.375 61.050-29.175 34.050-40.125 43.125-47.4 39.3zM366.6 395.85c-0.75-5.475-10.125-81.825-17.85-144.6-2.85-23.7-5.4-44.25-5.7-45.6l-0.375-2.475-3.9 0.45c-50.25 5.7-100.275 25.575-146.775 58.35-6.3 4.425-8.25 6.225-8.25 7.5 0 0.9 3 18.3 6.6 38.625 4.575 25.35 6.975 37.275 7.725 37.725 1.575 0.975 19.5 6.9 19.875 6.525 0.15-0.225-1.275-3.825-3.15-8.025-4.725-10.575-3.675-11.025 4.65-1.875 15.525 17.1 13.35 15.525 27.225 20.175 6.75 2.325 12.45 4.050 12.6 3.825 0.225-0.225-0.975-3.825-2.775-8.025-1.725-4.2-3.3-8.1-3.525-8.7-0.675-1.65 1.8-1.125 3 0.75 0.6 0.9 2.775 3.525 4.725 5.85 2.025 2.325 5.85 6.75 8.475 9.825l4.8 5.7 15.675 5.4c8.625 3 15.825 5.325 15.975 5.175s-1.425-4.65-3.45-9.975c-2.025-5.325-3.6-9.825-3.45-9.9 0.15-0.15 3.6 3.825 7.725 8.775 4.050 5.025 8.775 10.725 10.425 12.675l2.925 3.6 17.325 5.85c9.45 3.15 17.7 5.925 18.225 6.15 1.425 0.525 1.125-0.9-2.475-10.125-1.875-4.8-3.3-8.85-3.15-9s3.975 4.275 8.475 9.825c4.5 5.55 8.4 10.125 8.625 10.125 0.225 0.075 0.15-2.025-0.225-4.575zM179.025 332.925c-6.15-11.025-6-11.625 0.9-4.875 3.3 3.3 6.15 5.85 6.3 5.625 0.3-0.225-2.775-18.375-8.55-49.95-0.9-5.1-1.95-9.225-2.25-9.225-2.175 0-52.425 43.725-52.425 45.675 0 0.6 21.15 7.725 21.6 7.275 0.15-0.225-1.575-3.9-3.825-8.25-5.325-10.425-3.825-10.5 5.325-0.225 12.3 13.8 11.85 13.5 24.9 18 6.375 2.175 11.775 3.9 11.925 3.75 0.15-0.075-1.65-3.6-3.9-7.8zM115.8 288.9c20.4-20.175 40.8-38.85 49.8-45.6 2.175-1.575 3.9-3.375 3.9-4.050s-1.5-9.45-3.3-19.575c-1.8-10.050-4.275-23.85-5.4-30.6l-2.175-12.225-6.75 0.525c-8.25 0.6-15 1.725-31.5 5.175-16.8 3.525-26.55 6.3-40.35 11.4-10.875 4.050-31.65 13.125-32.925 14.4-0.375 0.375 1.95 12.225 5.025 26.475 8.775 39.825 13.95 63.15 14.4 65.025 0.225 0.9 0.975 1.65 1.65 1.65s1.575 0.3 1.95 0.675c0.975 0.825 8.025 3.15 8.4 2.775 0.15-0.15-1.050-2.85-2.7-6-1.725-3.15-3.075-6.375-3.075-7.2 0-2.475 2.4-1.65 5.1 1.725 5.475 6.9 14.7 17.025 15.375 17.025 0.45 0 10.575-9.75 22.575-21.6z" />
<glyph unicode="&#xe623;" d="M155 418.8c-8.1-4.3-3.6-15.8 17.2-44.2 17.4-23.8 50.3-63.4 75.7-91.4 6.5-7 9.8-11.4 8.9-11.7-0.7-0.2-11.4-3.9-23.8-8-32.4-11-72-24.4-114.5-38.9-20.3-7-37.5-12.5-38.2-12.4-2.7 0.6-43.2 39.9-70.6 68.5l-9.7 10.2v-49.2l10.7-11.6c5.9-6.4 15.2-16.2 20.6-21.7l9.9-10.2-9.4-3.1c-5.1-1.8-14.2-4.9-20.3-6.9l-11-3.8-0.6-23.6 2.3 0.8c1.3 0.3 6.6 2.1 11.8 4 5.2 1.8 9.6 3.1 9.8 2.9s-0.8-2-2.1-4.2c-2.7-4.1-4.3-8.3-3.1-8.3 0.3 0 3.4 2.6 6.8 5.7 10 9.4 14.8 12.9 19.9 14.6 2.6 0.9 4.7 1.4 4.7 1.2s-0.9-2.8-2-5.6c-2.9-7.3-1.3-8.5 4.3-3.3 2.3 2.2 5.4 5 6.9 6.3l2.7 2.4 11.5-10.4c6.5-6 11.5-11.2 11.5-12.3 0.1-1.7-4.6-20.4-9.9-39.6-1-3.6-4.2-15.4-7.1-26.3-5.1-19.4-5.3-19.8-7.6-19.2-4.4 1.1-31 14.2-45 22.2-7.6 4.3-14.1 8-14.6 8.1-0.4 0.2-0.6-10.8-0.5-24.4l0.3-24.7 6.3-3.5c6.1-3.3 6.2-3.4 6.2-7.7 0-14.7 9.1-35.1 21.4-48.3 5.4-5.7 6.2-7.1 5.6-9.2-0.4-1.4-1-5.2-1.4-8.3l-0.7-5.7h12.1c11.9 0 12.1 0 13 2.5 0.8 2.2 1.3 2.4 3.5 1.5 1.5-0.6 5.3-1 8.6-1 4.6 0 5.9-0.3 5.9-1.5s1.3-1.5 5.9-1.5c4.8 0 6 0.3 6.3 1.8 0.3 1.1 2.3 2.3 4.9 3.1 7.2 2.2 17 7.6 22.9 12.6 5.8 5 14.5 15.3 16.3 19.3 1 2.2 1.5 2.4 6.2 1.7 16-2.1 32.1-3.5 47.8-4.1 15.6-0.6 17.7-0.9 17.2-2.3-0.2-0.9-1.4-6.1-2.6-11.6-3.3-15.6-3.8-17.9-3.9-19.2 0-1 3.4-1.3 13.9-1.3 12.5 0 14 0.2 14.4 1.8 0.3 0.9 1 3.7 1.5 6.2 3.5 14.6 4.2 17.3 4.6 17.7 0.2 0.2 3.1-0.3 6.4-1.1 3.3-0.9 7.6-1.6 9.5-1.6 3.2 0 3.5-0.3 4.1-3.8 0.3-2 0.6-6.2 0.6-9.2 0-9.7 0.3-10 7.8-10h6.5l-0.6 12.4-0.6 12.3 4.2 1.2c5.8 1.7 16.4 8.1 22.6 13.7 7.9 7.1 16.5 19.9 20.6 30.7 1.5 4 2.2 4.8 3.9 4.3 7.7-1.9 34.9-3.9 53.6-4 17.4-0.1 22.6 0.2 27.4 1.6 10.1 2.9 13.2 7.4 12.1 17.8-0.6 5.4-1.2 6.9-3.9 9.6-3.9 3.9-13.4 6.3-28.3 7.1-8.9 0.5-10.3 0.8-10.3 2.4 0 1.5 2.1 13.6 10.4 59.4 0.8 4.4 1.7 9.7 2.1 11.8 0.6 3.5 0.8 3.8 2.5 2.5 1-0.7 7.2-4.9 13.7-9.3s12.1-8.4 12.5-9c0.4-0.5 0.8-6.9 0.8-14.2 0-7.2 0.4-13.4 0.9-13.7s0.7-1.4 0.4-2.5c-0.7-2.8 4-19.5 8.4-29.8 5.4-12.3 12.2-22.4 21.5-31.5l7.8-7.7-1.9-7.3c-3.5-13.5-11.3-42.3-13.2-48.9-1-3.6-1.9-7.1-1.9-7.8 0-0.8 5-1.1 17.3-1.1h17.3l6.8 24.3c3.7 13.3 7 24.8 7.2 25.5 0.2 0.8 3 1.2 9.3 1.2h8.9l0.7-7.7c0.3-4.3 1-12.3 1.5-17.8s1.2-13.5 1.5-17.7l0.7-7.8h16.9l-0.6 4.3c-0.6 4.6-2.2 25.6-3.2 41.2l-0.6 10 4.9 2.4c16.5 7.9 32.9 25.6 41.5 44.8 1.7 3.7 3.2 6.9 3.3 7 0.2 0.2 5-0.3 10.7-1.1 31-4.3 68.3-4.7 78.8-1 7.8 2.8 9.6 5.7 9.5 15-0.2 8.2-1.6 11.4-6.4 13.9-4.9 2.5-16.8 4.6-30.2 5.2-12.4 0.6-12.8 0.7-12.8 2.8 0 2.4 7.7 66.5 15.4 128 2.5 19.8 7.3 58.3 10.6 85.5s6.2 51.1 6.5 53c0.5 3 1.2 3.8 4.9 5.3 6.5 2.7 10.1 6.9 10.1 11.8 0 4.8-2.3 7.2-8.6 9.1-5 1.5-5.4 1.4-41.9-11.2-32-11-128.6-44-196.5-67-14.3-4.9-44.7-15.2-67.5-23s-44.7-15.2-48.7-16.6c-3.9-1.3-7.8-2.4-8.6-2.4-2.9 0-46.4 46.3-76.5 81.4-38.9 45.4-53.5 57.5-63.2 52.4zM637.8 367.8c-1-7.3-13.5-109.1-23.8-192.8-3.8-31.6-7.2-59-7.6-60.8l-0.5-3.3-5.2 0.6c-67 7.6-133.7 34.1-195.7 77.8-8.4 5.9-11 8.3-11 10 0 1.2 4 24.4 8.8 51.5 6.1 33.8 9.3 49.7 10.3 50.3 2.1 1.3 26 9.2 26.5 8.7 0.2-0.3-1.7-5.1-4.2-10.7-6.3-14.1-4.9-14.7 6.2-2.5 20.7 22.8 17.8 20.7 36.3 26.9 9 3.1 16.6 5.4 16.8 5.1 0.3-0.3-1.3-5.1-3.7-10.7-2.3-5.6-4.4-10.8-4.7-11.6-0.9-2.2 2.4-1.5 4 1 0.8 1.2 3.7 4.7 6.3 7.8 2.7 3.1 7.8 9 11.3 13.1l6.4 7.6 20.9 7.2c11.5 4 21.1 7.1 21.3 6.9s-1.9-6.2-4.6-13.3c-2.7-7.1-4.8-13.1-4.6-13.2 0.2-0.2 4.8 5.1 10.3 11.7 5.4 6.7 11.7 14.3 13.9 16.9l3.9 4.8 23.1 7.8c12.6 4.2 23.6 7.9 24.3 8.2 1.9 0.7 1.5-1.2-3.3-13.5-2.5-6.4-4.4-11.8-4.2-12s5.3 5.7 11.3 13.1c6 7.4 11.2 13.5 11.5 13.5 0.3 0.1 0.2-2.7-0.3-6.1zM387.7 283.9c-8.2-14.7-8-15.5 1.2-6.5 4.4 4.4 8.2 7.8 8.4 7.5 0.4-0.3-3.7-24.5-11.4-66.6-1.2-6.8-2.6-12.3-3-12.3-2.9 0-69.9 58.3-69.9 60.9 0 0.8 28.2 10.3 28.8 9.7 0.2-0.3-2.1-5.2-5.1-11-7.1-13.9-5.1-14 7.1-0.3 16.4 18.4 15.8 18 33.2 24 8.5 2.9 15.7 5.2 15.9 5 0.2-0.1-2.2-4.8-5.2-10.4zM303.4 225.2c27.2-26.9 54.4-51.8 66.4-60.8 2.9-2.1 5.2-4.5 5.2-5.4s-2-12.6-4.4-26.1c-2.4-13.4-5.7-31.8-7.2-40.8l-2.9-16.3-9 0.7c-11 0.8-20 2.3-42 6.9-22.4 4.7-35.4 8.4-53.8 15.2-14.5 5.4-42.2 17.5-43.9 19.2-0.5 0.5 2.6 16.3 6.7 35.3 11.7 53.1 18.6 84.2 19.2 86.7 0.3 1.2 1.3 2.2 2.2 2.2s2.1 0.4 2.6 0.9c1.3 1.1 10.7 4.2 11.2 3.7 0.2-0.2-1.4-3.8-3.6-8-2.3-4.2-4.1-8.5-4.1-9.6 0-3.3 3.2-2.2 6.8 2.3 7.3 9.2 19.6 22.7 20.5 22.7 0.6 0 14.1-13 30.1-28.8zM213.4 229.3c-1.5-2.7-3.6-6-4.6-7.5-2-2.9-2.4-5.8-0.8-5.8 0.6 0 4.9 3.7 9.5 8.1 4.7 4.5 8.5 7.8 8.5 7.4 0-0.5-2.9-13.9-6.4-29.9-3.6-16-8.8-39.9-11.7-53.1s-5.5-24.3-5.9-24.7c-0.8-1.1-17.4 8.4-36 20.6-15.6 10.3-37.8 26.5-49.9 36.6l-6.3 5.2 9.1 9.2c8.4 8.4 9.8 9.4 16.2 11.5 3.9 1.2 7.3 2.1 7.5 1.8 0.3-0.3-0.9-3.3-2.6-6.7-5.6-11.1-3.2-10.5 9.8 2.2 11 10.7 12.2 11.6 19.5 14.2 4.3 1.6 8 2.7 8.1 2.5 0.2-0.2-0.9-3.5-2.4-7.4-4.6-11.5-2.4-11 9.9 2.3l10.9 11.7 9.3 3.2c5.2 1.8 9.8 3.2 10.2 3.2 0.4 0.1-0.4-2-1.9-4.6zM100.8 142.2c17.4-15.5 43.6-34.8 64.7-47.7 6.1-3.7 13.8-8.6 17.3-10.8l6.2-4.1v-7c0-3.9-0.9-11.8-2-17.6-3.2-17.3-1.6-15.4-12.8-14.6-19.7 1.5-48.5 7.1-72.6 14.2-14.5 4.3-31.6 10.5-31.6 11.6 0 0.4 4.6 17.7 10.1 38.5 5.6 20.8 10.3 38.7 10.6 39.8 0.9 3.6 1.2 4.5 1.9 4.5 0.3 0 4-3.1 8.2-6.8z" horiz-adv-x="683" />
<glyph unicode="&#xe624;" d="M515.882 187.43h-18.288c-2.668 0-4.861-0.856-6.568-2.57-1.719-1.712-2.574-3.903-2.574-6.572v-91.427c0-12.572-4.471-23.331-13.424-32.284s-19.716-13.424-32.288-13.424h-237.715c-12.572 0-23.334 4.471-32.287 13.424s-13.428 19.712-13.428 32.284v237.716c0 12.572 4.475 23.331 13.428 32.284s19.715 13.427 32.287 13.427h201.139c2.672 0 4.864 0.859 6.575 2.57 1.712 1.715 2.567 3.903 2.567 6.572v18.288c0 2.665-0.856 4.857-2.567 6.569-1.712 1.715-3.903 2.57-6.575 2.57h-201.139c-22.665 0-42.047-8.048-58.144-24.141-16.093-16.096-24.141-35.479-24.141-58.144v-237.716c0-22.665 8.048-42.047 24.141-58.137 16.096-16.096 35.479-24.148 58.144-24.148h237.716c22.665 0 42.047 8.051 58.144 24.148 16.096 16.089 24.144 35.472 24.144 58.137v91.427c0 2.668-0.856 4.861-2.574 6.575-1.715 1.715-3.907 2.57-6.572 2.57zM629.308 437.998c-3.619 3.619-7.912 5.429-12.86 5.429h-146.284c-4.952 0-9.24-1.81-12.856-5.429-3.619-3.619-5.432-7.904-5.432-12.856s1.813-9.24 5.432-12.859l50.284-50.284-186.284-186.288c-1.908-1.904-2.858-4.096-2.858-6.568 0-2.479 0.954-4.671 2.858-6.575l32.572-32.568c1.904-1.904 4.096-2.854 6.572-2.854s4.668 0.95 6.572 2.854l186.284 186.284 50.288-50.285c3.615-3.619 7.904-5.428 12.856-5.428s9.24 1.81 12.86 5.428 5.428 7.904 5.428 12.856v146.288c0 4.955-1.817 9.237-5.432 12.856z" horiz-adv-x="758" />
<glyph unicode="&#xe625;" d="M256 480c-141.376 0-256-114.624-256-256s114.624-256 256-256 256 114.624 256 256c0 141.408-114.624 256-256 256zM322.176 224.032l-41.952-0.032-0.032-153.6h-57.568v153.6h-38.4v52.928l38.4 0.032-0.064 31.168c0 43.2 11.712 69.472 62.56 69.472h42.368v-52.96h-26.496c-19.808 0-20.768-7.392-20.768-21.184l-0.064-26.496h47.616l-5.6-52.928z" />
<glyph unicode="&#xe626;" d="M416 480h-320c-53.024 0-96-42.976-96-96v-320c0-53.024 42.976-96 96-96h320c53.024 0 96 42.976 96 96v320c0 53.024-42.976 96-96 96zM322.176 224.032l-41.952-0.032-0.032-153.6h-57.568v153.6h-38.4v52.928l38.4 0.032-0.064 31.168c0 43.2 11.712 69.472 62.56 69.472h42.368v-52.96h-26.496c-19.808 0-20.768-7.392-20.768-21.184l-0.064-26.496h47.616l-5.6-52.928z" />
<glyph unicode="&#xe627;" d="M103.624 274.688c0 79.749 64.876 144.63 144.63 144.63 66.018 0 121.713-44.508 138.987-105.063-3.159-3.42-5.366-7.757-5.99-12.667l-1.577-12.621-2.678-14.295-14.781 0.015c0 62.843-51.128 113.966-113.961 113.966-62.848 0-113.976-51.123-113.976-113.966 0-42.629 23.567-79.8 58.311-99.349l-22.287-22.288c-40.038 25.753-66.678 70.599-66.678 121.636zM248.254 365.527c-8.474 0-15.329-6.866-15.329-15.329v-75.51c0-8.464 6.856-15.329 15.329-15.329h86.727c8.469 0 15.334 6.866 15.334 15.329 0 8.469-6.866 15.334-15.334 15.334h-71.399v60.175c0 8.464-6.871 15.329-15.329 15.329zM407.906 297.953c-0.108 4.009-3.287 7.26-7.286 7.465-3.825 0.22-7.49-2.708-7.993-6.702l-1.639-13.077-2.862-15.268c-1.183-5.294-2.406-10.767-4.68-16.717l-3.435-10.050-4.869-10.711c-1.741-4.393-4.377-8.816-7.178-13.502-1.423-2.37-2.857-4.767-4.199-7.214-1.413-1.904-2.796-3.84-4.163-5.791-3.61-5.084-7.010-9.887-11.577-14.674-3.968-4.951-8.724-9.375-13.747-14.060-1.479-1.377-2.949-2.75-4.403-4.137-1.628-1.239-3.241-2.493-4.839-3.743-5.34-4.158-10.368-8.079-16.353-11.52-4.623-3.221-9.902-5.822-14.997-8.325-2.13-1.050-4.245-2.094-6.298-3.159-2.601-0.937-5.13-1.945-7.623-2.939-4.67-1.869-9.078-3.625-13.747-4.654l-10.132-2.806-9.964-1.705c-5.069-1.086-9.529-1.341-13.85-1.598l-8.12-0.62-1.147 0.026v35.769c0 3.098-1.863 5.893-4.731 7.081-2.877 1.183-6.16 0.533-8.361-1.659l-65.951-65.945c-1.434-1.438-2.243-3.389-2.243-5.422s0.809-3.983 2.243-5.422l65.951-65.945c1.47-1.464 3.43-2.243 5.422-2.243 0.988 0 1.987 0.19 2.939 0.584 2.867 1.188 4.731 3.983 4.731 7.086v37.376l14.116 2.586c6.528 1.346 14.654 3.036 22.436 5.924l9.072 3.041 15.043 6.364c6.339 2.498 12.344 6.011 18.145 9.406 2.483 1.454 4.992 2.918 7.552 4.327 0.281 0.154 0.543 0.322 0.809 0.507 2.002 1.444 4.034 2.862 6.077 4.286 6.195 4.301 12.59 8.755 18.063 13.901 6.759 5.386 12.667 11.627 18.375 17.664l4.142 4.362c0.179 0.19 0.353 0.384 0.522 0.594l3.748 4.741c5.11 6.425 10.404 13.082 14.397 19.911 4.475 6.4 7.844 13.072 11.106 19.533 1.122 2.233 2.238 4.439 3.379 6.599 0.154 0.297 0.297 0.599 0.409 0.911 1.019 2.739 2.115 5.412 3.19 8.038 2.381 5.817 4.839 11.832 6.226 17.731l3.533 12.575 2.017 11.059c1.603 7.291 2.063 13.962 2.478 19.845l0.738 10.005-0.476 20.311z" />
<glyph unicode="&#xe628;" d="M78.564-19.081c0 0-0.525-12.919 12.108-12.919 15.722 0 145.654 0.175 145.654 0.175l0.219 119.356c0 0-2.058 19.663 17.013 19.663h60.456c22.575 0 21.195-19.663 21.195-19.663l-0.263-118.984c0 0 123.232 0 142.589 0 16.028 0 15.305 16.072 15.305 16.072v220.101l-200.964 178.739-213.314-178.761v-223.78zM0 221.339c0 0 18.087-33.37 57.609 0l236.064 199.715 221.306-198.467c45.72-32.976 62.864 0 62.864 0l-284.17 257.413-293.673-258.661zM509.591 421.515h-56.909l0.241-69.039 56.668-48.106z" horiz-adv-x="578" />
<glyph unicode="&#xe629;" d="M275.545 239.075l49.379 79.245c2.914 4.672 8.318 7.187 13.766 6.403 8.569-1.231 17.555 1.941 23.405 9.155 8.859 10.913 7.192 26.943-3.723 35.799s-26.946 7.188-35.801-3.727c-4.659-5.737-6.402-12.889-5.425-19.67 0.787-5.451-1.727-10.857-6.402-13.77l-79.252-49.384 44.053-44.051zM423.437 150.37c-192.387-93.748-374.578 85.311-279.633 279.63l95.707-95.707-35.022-21.822-43.478 43.478c-21.022-115.905 73.241-208.561 188.221-188.218l-44.677 44.676 21.822 35.022 97.060-97.059zM148.57 18l13.228 11.934c23.113 20.852 58.252 20.852 81.365-0.001l13.227-11.933h60.007l-113.917 102.771-113.917-102.771h60.007z" />
<glyph unicode="&#xe62a;" d="M416 432c-44.188 0-80-35.813-80-80 0-11.938 2.625-23.281 7.313-33.438l72.687-142.562 72.688 142.563c4.687 10.156 7.312 21.499 7.312 33.437 0 44.187-35.812 80-80 80zM416 304c-26.5 0-48 21.5-48 48s21.5 48 48 48 48-21.5 48-48-21.5-48-48-48zM439.938 152.531l29.125-58.219-73.844-36.906-24.75 123.813 4.594 4.594-15.25 30-7.813-7.813-96 64-96-64-64 64-96-192 128-64 128 64 128-64 128 64-54 107.969-18.062-35.438zM116.75 57.406l-73.813 36.906 61.813 123.688 36.781-36.781-24.781-123.813zM240 107.781l-89.5-44.75 23.125 115.594 66.375 44.25v-115.094zM272 107.781v115.094l66.344-44.25 23.125-115.594-89.469 44.75z" />
<glyph unicode="&#xe62b;" d="M76.237 403.762c99.28 99.28 260.245 99.28 359.524 0s99.28-260.245 0-359.524c-99.28-99.28-260.245-99.28-359.524 0s-99.28 260.245 0 359.524zM134.064 64.351c79.55-60.289 192.184-54.204 263.986 17.599s77.889 184.436 18.257 263.161zM377.937 383.649c-79.55 60.289-192.184 54.204-263.986-17.599s-77.888-184.437-18.257-263.161z" />
<glyph unicode="&#xe62c;" d="M309.387 155.555c2.901 2.901 3.957 6.067 3.165 9.495-0.264 1.582-0.925 3.032-1.979 4.351s-2.242 2.505-3.56 3.56l-46.685 27.3-0.396 0.394c-1.582 0.793-3.692 1.187-6.33 1.187-4.22 0-7.517-1.318-9.891-3.955l-13.847-13.848c-0.792-0.792-1.846-1.188-3.165-1.188-3.165 0.527-6.989 1.979-11.474 4.352-3.692 2.11-8.375 5.077-14.045 8.902s-12.199 9.43-19.584 16.815c-5.275 5.538-10.155 11.078-14.638 16.617-3.692 4.484-7.121 9.363-10.286 14.638s-4.88 9.891-5.143 13.848c0 1.319 0.395 2.374 1.187 3.165l11.869 11.869c2.11 2.11 3.429 4.681 3.957 7.715s0.132 5.868-1.187 8.506l-25.716 48.267c-2.11 4.22-5.275 6.33-9.495 6.33-2.637 0-5.275-1.055-7.912-3.165l-31.651-32.047c-1.582-1.319-2.968-3.231-4.154-5.736s-1.912-4.813-2.176-6.923v-9.891c0 0 1.715-8.177 5.144-24.53s9.43-28.618 18.002-36.794c8.572-8.176 21.166-23.606 37.784-46.289 14.243-14.243 27.563-25.452 39.959-33.63 12.397-8.175 23.541-14.309 33.431-18.397s18.265-6.66 25.121-7.715c6.857-1.055 11.737-1.582 14.64-1.582 1.319 0 2.374 0.067 3.165 0.199 0.793 0.131 1.319 0.199 1.582 0.199 2.11 0.264 4.351 0.989 6.726 2.176s4.351 2.572 5.935 4.154l31.652 31.651zM197.818 421.818c27.167 0 52.817-5.209 76.951-15.627s45.103-24.529 62.906-42.333 31.914-38.772 42.333-62.906 15.627-49.784 15.627-76.952c0-18.2-2.374-35.739-7.122-52.62-4.749-16.879-11.408-32.639-19.98-47.279-8.572-14.639-18.858-27.959-30.86-39.959-12-12.001-25.32-22.289-39.959-30.86-14.64-8.572-30.398-15.232-47.279-19.979s-34.419-7.122-52.619-7.122-35.739 2.374-52.619 7.122c-16.881 4.749-32.64 11.408-47.279 19.98s-27.959 18.858-39.959 30.86c-12.001 12-22.288 25.32-30.86 39.959s-15.232 30.398-19.98 47.279-7.122 34.421-7.122 52.62c0 18.2 2.374 35.739 7.122 52.62s11.408 32.64 19.98 47.279c8.572 14.638 18.859 27.959 30.86 39.959s25.321 22.288 39.959 30.86c14.638 8.572 30.398 15.232 47.279 19.979s34.421 7.122 52.62 7.122z" horiz-adv-x="396" />
<glyph unicode="&#xe62d;" d="M386.141 122.717c0.791-6.067-1.057-11.341-5.539-15.825l-52.62-52.223c-2.374-2.637-5.473-4.881-9.298-6.726-3.825-1.846-7.582-3.033-11.274-3.56-0.264 0-1.057-0.067-2.375-0.199s-3.032-0.198-5.142-0.198c-5.012 0-13.123 0.857-24.333 2.572s-24.925 5.936-41.145 12.661c-16.222 6.726-34.619 16.816-55.192 30.266s-42.465 31.914-65.675 55.389c-18.463 18.2-33.761 35.608-45.894 52.224s-21.892 31.981-29.277 46.091c-7.386 14.111-12.925 26.904-16.617 38.377s-6.198 21.364-7.517 29.672c-1.319 8.309-1.847 14.837-1.582 19.584s0.396 7.385 0.396 7.913c0.527 3.692 1.714 7.451 3.56 11.275s4.088 6.923 6.726 9.298l52.62 52.62c3.692 3.692 7.912 5.539 12.66 5.539 3.429 0 6.462-0.989 9.1-2.968s4.879-4.418 6.726-7.32l42.333-80.314c2.374-4.22 3.033-8.836 1.978-13.847s-3.297-9.232-6.726-12.661l-19.386-19.386c-0.528-0.528-0.989-1.385-1.385-2.572s-0.594-2.176-0.594-2.967c1.055-5.539 3.429-11.869 7.121-18.99 3.165-6.33 8.044-14.045 14.638-23.144s15.958-19.584 28.090-31.452c11.869-12.134 22.419-21.562 31.651-28.288 9.23-6.724 16.947-11.671 23.144-14.837s10.946-5.077 14.243-5.736l4.944-0.989c0.528 0 1.386 0.198 2.572 0.594s2.044 0.857 2.571 1.385l22.551 22.947c4.749 4.22 10.286 6.33 16.616 6.33 4.485 0 8.045-0.791 10.682-2.374h0.396l76.356-45.103c5.541-3.43 8.838-7.782 9.893-13.058z" horiz-adv-x="396" />
<glyph unicode="&#xe62e;" d="M310.264 270.576c-35.568 0-64.512-28.936-64.512-64.504 0-35.56 28.944-64.504 64.512-64.504 35.56 0 64.488 28.944 64.488 64.504 0 35.576-28.92 64.504-64.488 64.504zM415.952 349.264h-27.576l-35.016 32.816h-97.216l-28.432-32.816h-58.704c-2.624 10.84-9.736 18.24-18.248 18.24h-41.496c-8.552 0-15.72-7.488-18.288-18.464-29.392-2.576-52.512-27.328-52.512-57.368v-168.152c0-31.76 25.832-57.6 57.6-57.6h319.888c31.76 0 57.584 25.84 57.584 57.6v168.152c0 31.752-25.824 57.592-57.584 57.592zM90.56 138.568c0-6.008-4.888-10.872-10.896-10.872s-10.88 4.864-10.88 10.872v114.8c0 6.008 4.872 10.88 10.88 10.88s10.896-4.872 10.896-10.88v-114.8zM156.032 306.752c0-6.336-5.16-11.48-11.488-11.48h-29.512c-6.336 0-11.488 5.144-11.488 11.48v6.752c0 6.344 5.152 11.488 11.488 11.488h29.512c6.336 0 11.488-5.144 11.488-11.488v-6.752zM310.264 114.048c-50.744 0-92.032 41.288-92.032 92.032 0 50.728 41.288 92.016 92.032 92.016 50.736 0 92-41.288 92-92.016 0-50.744-41.264-92.032-92-92.032z" />
<glyph unicode="&#xe62f;" d="M463.764 363.293c-10.565 3.466-19.101 21.976-14.829 32.148 3.584 8.497 7.572 10.417 0.827 17.162-5.376 5.297-10.861-2.008-15.183-4.342-1.861-1.024-4.627-1.713-5.967-1.979-7.916-1.556-26.92 4.952-26.92 23.266 0 4.825-1.979 6.715-7.128 6.696-4.992-0.010-7.897-0.867-9.147-6.518-1.113-5.031-2.353-11.313-5.563-14.198-5.632-5.071-12.928-9.501-21.937-9.236-3.889 0.118-8.753 3.899-12.918 6.528-4.392 2.776-7.7 3.919-12.259-0.601-4.726-4.697-2.747-7.926-0.128-12.13 2.599-4.175 7.050-9.098 6.41-12.968-1.231-7.424-4.519-15.055-8.93-21.159-2.363-3.279-8.753-4.234-13.519-5.002-5.661-0.925-6.902-3.554-6.942-8.891-0.049-5.701 2.107-7.779 7.424-8.724 4.519-0.787 10.762-1.526 12.82-4.588 4.362-6.528 7.611-14.326 9.068-22.036 0.67-3.565-3.584-8.369-6.223-12.18-3.121-4.529-3.476-7.709 0.877-12.13 4.677-4.736 8.064-4.165 12.81-0.709 3.515 2.56 8.182 6.528 11.471 5.819 7.68-1.654 15.459-4.835 21.957-9.236 3.053-2.088 3.525-8.34 4.618-12.84 1.083-4.45 1.438-8.29 7.916-8.33 6.193-0.040 8.832 1.92 10.26 7.857 1.221 5.090 2.717 12.455 6.321 14.188 11.087 5.346 21.779 13.666 31.961 3.643 1.014-0.995 6.863-5.248 13.548 1.506 5.957 6.006 2.895 11.411-0.551 15.262-10.378 11.599-1.93 33.811 8.557 33.517 10.772-0.286 14.425 1.496 14.425 10.506-0.010 9.374-9.305 8.448-13.125 9.699zM394.899 310.784c-21.051 0.099-37.947 17.299-37.849 38.528 0.108 20.893 17.546 37.976 38.597 37.819 20.549-0.157 37.613-17.546 37.553-38.291-0.069-21.12-17.201-38.144-38.301-38.055zM268.002 85.277c-10.575 3.476-19.101 21.986-14.819 32.147 3.584 8.507 7.562 10.427 0.827 17.162-5.386 5.297-10.87-1.999-15.183-4.342-1.861-1.014-4.627-1.704-5.967-1.969-7.917-1.565-26.919 4.952-26.919 23.257 0 4.834-1.979 6.725-7.129 6.705-4.992-0.019-7.887-0.877-9.137-6.518-1.113-5.031-2.353-11.313-5.573-14.208-5.642-5.061-12.928-9.491-21.937-9.226-3.88 0.118-8.753 3.899-12.918 6.518-4.392 2.786-7.709 3.919-12.258-0.591-4.726-4.697-2.737-7.926-0.128-12.13 2.6-4.175 7.060-9.098 6.41-12.967-1.24-7.424-4.519-15.055-8.941-21.169-2.363-3.269-8.753-4.224-13.519-4.992-5.662-0.925-6.902-3.555-6.942-8.891-0.049-5.701 2.107-7.779 7.424-8.724 4.519-0.788 10.771-1.526 12.819-4.589 4.362-6.528 7.601-14.326 9.059-22.036 0.669-3.565-3.584-8.369-6.213-12.18-3.131-4.529-3.486-7.709 0.876-12.14 4.667-4.726 8.074-4.155 12.8-0.699 3.505 2.55 8.182 6.528 11.471 5.819 7.69-1.654 15.469-4.834 21.957-9.245 3.062-2.077 3.525-8.33 4.618-12.829 1.083-4.45 1.438-8.291 7.917-8.33 6.184-0.039 8.832 1.92 10.26 7.857 1.221 5.091 2.708 12.456 6.321 14.188 11.087 5.346 21.779 13.666 31.951 3.643 1.014-0.995 6.873-5.248 13.558 1.497 5.957 6.016 2.895 11.421-0.551 15.272-10.378 11.599-1.93 33.812 8.556 33.517 10.772-0.286 14.425 1.497 14.425 10.506 0 9.373-9.285 8.438-13.115 9.688zM199.138 32.778c-21.041 0.099-37.947 17.3-37.839 38.518 0.099 20.904 17.536 37.986 38.587 37.829 20.549-0.158 37.613-17.546 37.553-38.301-0.059-21.12-17.191-38.144-38.302-38.046zM295.788 324.392c-18.914 6.213-34.186 39.355-26.526 57.541 6.41 15.212 13.538 18.639 1.477 30.71-9.639 9.482-19.446-3.584-27.175-7.779-3.338-1.822-8.271-3.062-10.683-3.535-14.168-2.796-48.177 8.862-48.177 41.639 0.010 8.655-3.544 12.022-12.761 11.993-8.94-0.029-14.119-1.555-16.355-11.668-1.999-8.999-4.214-20.263-9.964-25.433-10.093-9.058-23.158-17.005-39.267-16.522-6.951 0.197-15.675 6.981-23.129 11.688-7.857 4.982-13.794 7.010-21.937-1.064-8.477-8.399-4.913-14.178-0.227-21.711 4.647-7.483 12.632-16.286 11.481-23.217-2.216-13.282-8.084-26.939-15.99-37.888-4.224-5.859-15.655-7.562-24.182-8.941-10.132-1.644-12.357-6.361-12.435-15.911-0.079-10.2 3.781-13.923 13.282-15.596 8.104-1.418 19.279-2.737 22.952-8.212 7.808-11.688 13.617-25.649 16.227-39.453 1.201-6.381-6.419-14.966-11.126-21.799-5.602-8.113-6.233-13.794 1.566-21.731 8.36-8.467 14.434-7.434 22.912-1.27 6.302 4.579 14.651 11.697 20.529 10.427 13.755-2.964 27.677-8.655 39.296-16.551 5.475-3.731 6.311-14.917 8.261-22.961 1.94-7.976 2.56-14.829 14.168-14.907 11.077-0.079 15.803 3.437 18.353 14.060 2.176 9.098 4.864 22.282 11.293 25.393 19.859 9.57 38.991 24.448 57.197 6.528 1.812-1.792 12.288-9.403 24.261 2.688 10.654 10.762 5.179 20.431-0.985 27.313-18.57 20.756-3.456 60.514 15.32 59.993 19.288-0.531 25.817 2.678 25.817 18.796-0.010 16.808-16.63 15.144-23.473 17.379zM172.534 230.429c-37.661 0.177-67.919 30.966-67.731 68.953 0.177 37.396 31.39 67.978 69.071 67.683 36.785-0.266 67.318-31.399 67.219-68.529-0.118-37.809-30.779-68.273-68.559-68.106z" />
<glyph unicode="&#xe630;" d="M196.744 139.608l-87.592-86.376c-10.992-10.832-24.592-14.936-30.384-9.152-5.784 5.776-1.632 19.32 9.288 30.232l86.624 86.632c10.92 10.912 24.736 14.96 30.864 9.024 6.128-5.92 2.184-19.52-8.8-30.36zM450.224 389.52c-3.496 12.496-16.2 24.384-28.384 26.528-12.176 2.16-31.216-5.24-42.528-16.552l-83.664-83.64c-11.312-11.32-16.8-24.16-12.264-28.696s7.56-8.608 6.808-9.184c-0.448-0.336-0.88-0.712-1.288-1.12-6.024-5.952-5.944-15.584 0.184-21.528 6.136-5.936 15.88-5.984 21.784-0.088 0.376 0.368 0.72 0.76 1.048 1.168 0.544 0.688 4.792-2.568 9.552-7.336 4.768-4.76 17.792 0.552 29.104 11.848l85.504 85.52c11.296 11.296 17.632 30.592 14.144 43.080zM416.288 107.024l-155.224 153.768c-10.48 10.376-23.128 30.008-28.24 43.84l-17.296 46.76c-5.12 13.832-20.664 28.656-34.728 33.104l-49.968 15.8c-14.064 4.44-16.968-0.36-6.48-10.744l56.304-55.696c10.488-10.384 10.576-27.288 0.2-37.776l-19.6-19.816c-10.376-10.488-27.288-10.584-37.768-0.208l-56.304 55.696c-10.488 10.376-15.608 7.312-11.44-6.84l14.672-49.784c4.168-14.16 18.88-29.464 32.856-34.176l50.040-16.928c13.976-4.72 33.8-16.968 44.28-27.352l155.248-153.736c10.48-10.376 27.392-10.288 37.768 0.184l25.864 26.136c10.376 10.472 10.296 27.392-0.184 37.768zM346 88c-13.256 0-24 10.744-24 24s10.744 24 24 24c13.256 0 24-10.744 24-24s-10.744-24-24-24z" />
<glyph unicode="&#xe631;" d="M300.666 275.674l-27.43 27.407 116.020 116.021 72.607-72.608-116.020-116.020-14.404 14.402 101.615 101.617-43.799 43.799-49.588-49.586 12.973-12.975-7.201-7.201-12.973 12.973-7.822-7.82 12.973-12.975-7.201-7.201-12.973 12.973-7.566-7.565 13.014-13.017-7.201-7.201-13.016 13.015-7.82-7.82 13.014-13.017-7.202-7.201zM406.016 346.214c0 9.491-7.697 17.186-17.188 17.186s-17.188-7.694-17.188-17.186c0-9.493 7.697-17.188 17.188-17.188s17.188 7.695 17.188 17.188zM333.806 65.307l68.981 68.981-225.42 225.421-68.982-68.981 225.421-225.421zM157.811 379.266l-38.691 38.691-68.982-68.981 38.689-38.69 68.984 68.98zM353.406 45.79l86.312-15.93-17.413 84.829-68.899-68.899zM144.266 57.705l-43.799 43.799 11.561 11.56 13.025-13.023 7.201 7.201-13.023 13.026 7.873 7.873 13.014-13.014 7.201 7.201-13.012 13.015 7.82 7.821 13.014-13.014 7.201 7.201-13.012 13.015 7.566 7.567 12.971-12.971 7.201 7.201-12.971 12.971 7.822 7.822 12.971-12.971 7.201 7.201-27.33 27.421-93.104-93.104 72.607-72.606 93.105 93.104-14.404 14.402-78.699-78.698z" />
<glyph unicode="&#xe632;" d="M333.813 252.388v38.222l-20.652 7.344c-7.875 2.799-14.211 8.814-17.41 16.535-0.002 0.002-0.004 0.006-0.004 0.010-3.211 7.738-2.986 16.475 0.609 24.041l9.408 19.789-27.029 27.027-19.783-9.404c-7.562-3.596-16.312-3.822-24.047-0.615-0.004 0.004-0.008 0.004-0.010 0.004-7.727 3.203-13.73 9.531-16.533 17.412l-7.344 20.654h-38.223l-7.346-20.654c-2.801-7.873-8.812-14.211-16.532-17.412-0.002 0-0.006-0.002-0.010-0.004-7.74-3.209-16.477-2.984-24.045 0.613l-19.785 9.406-27.029-27.027 9.406-19.785c3.596-7.562 3.82-16.312 0.613-24.049-0.002-0.002-0.002-0.004-0.006-0.010-3.201-7.723-9.529-13.729-17.408-16.531l-20.653-7.344v-38.223l20.654-7.344c7.873-2.801 14.209-8.814 17.41-16.533 0.002-0.004 0.002-0.008 0.004-0.010 3.209-7.74 2.984-16.477-0.611-24.045l-9.408-19.787 27.029-27.025 19.785 9.402c7.562 3.596 16.312 3.82 24.049 0.613 0.002-0.002 0.006-0.004 0.008-0.004 7.724-3.203 13.728-9.527 16.53-17.408l7.346-20.652h38.223l7.299 20.52c2.824 7.947 8.891 14.344 16.678 17.582 0.004 0.002 0.008 0.002 0.012 0.004 7.666 3.189 16.32 2.969 23.818-0.594l19.91-9.463 27.029 27.025-9.412 19.799c-3.592 7.555-3.814 16.295-0.609 24.023 0.002 0.004 0.004 0.006 0.004 0.010 3.207 7.732 9.539 13.742 17.426 16.547l20.639 7.341zM191.907 219.458c-28.742 0-52.042 23.301-52.042 52.041 0 28.742 23.3 52.043 52.042 52.043 28.74 0 52.041-23.301 52.041-52.043 0-28.74-23.301-52.041-52.041-52.041zM462 140.009v20.32l-10.979 3.902c-4.188 1.488-7.557 4.688-9.258 8.791-0.002 0-0.002 0.002-0.002 0.004-1.707 4.115-1.586 8.76 0.326 12.783l5 10.52-14.369 14.367-10.518-5c-4.020-1.91-8.67-2.031-12.783-0.326-0.002 0-0.004 0-0.006 0-4.105 1.705-7.299 5.068-8.787 9.258l-3.904 10.98h-20.32l-3.904-10.98c-1.49-4.186-4.686-7.555-8.789-9.258-0.002 0-0.004 0-0.006 0-4.112-1.705-8.757-1.586-12.78 0.326l-10.52 5-14.369-14.367 5.002-10.52c1.91-4.020 2.029-8.672 0.324-12.783 0-0.002 0-0.004-0.002-0.006-1.701-4.107-5.066-7.299-9.254-8.789l-10.98-3.902v-20.32l10.98-3.902c4.186-1.488 7.555-4.684 9.254-8.789 0.002-0.002 0.002-0.004 0.002-0.006 1.707-4.113 1.588-8.758-0.324-12.781l-5.002-10.52 14.369-14.367 10.52 4.998c4.020 1.912 8.67 2.031 12.782 0.326 0.002 0 0.002-0.002 0.004-0.002 4.107-1.701 7.297-5.064 8.789-9.252l3.904-10.982h20.32l3.879 10.91c1.502 4.225 4.727 7.625 8.867 9.348 0.002 0 0.004 0.002 0.006 0.002 4.074 1.695 8.676 1.578 12.662-0.316l10.584-5.031 14.369 14.367-5.002 10.525c-1.91 4.018-2.029 8.664-0.326 12.771 0 0.002 0.002 0.004 0.002 0.004 1.707 4.111 5.072 7.307 9.264 8.799l10.975 3.898zM386.561 122.505c-15.279 0-27.665 12.387-27.665 27.664 0 15.279 12.386 27.666 27.665 27.666s27.666-12.387 27.666-27.666c0-15.277-12.387-27.664-27.666-27.664zM315.284 80.187v11.139l-7.753 1.939c-1.605 0.402-2.873 1.646-3.3 3.246-0.002 0.008-0.005 0.018-0.007 0.025-0.423 1.576 0.045 3.26 1.218 4.393l5.771 5.584-5.57 9.646-7.647-2.186c-1.618-0.463-3.367-0.012-4.558 1.176-0.001 0.002-0.002 0.002-0.002 0.004-1.141 1.137-1.574 2.805-1.132 4.354l2.221 7.771-9.646 5.57-5.556-5.744c-1.15-1.188-2.857-1.664-4.454-1.236-0.009 0-0.017 0.004-0.024 0.006-1.58 0.42-2.807 1.666-3.204 3.254l-1.948 7.789h-11.139l-1.941-7.752c-0.401-1.605-1.646-2.873-3.246-3.301-0.008-0.002-0.018-0.004-0.025-0.006-1.576-0.424-3.258 0.045-4.393 1.217l-5.584 5.773-9.646-5.57 2.186-7.648c0.463-1.617 0.012-3.367-1.176-4.559-0.001 0-0.002-0.002-0.003-0.002-1.138-1.141-2.805-1.574-4.354-1.131l-7.772 2.221-5.568-9.646 5.744-5.555c1.187-1.15 1.662-2.859 1.236-4.455-0.002-0.008-0.006-0.018-0.007-0.025-0.42-1.58-1.667-2.807-3.254-3.203l-7.79-1.949v-11.139l7.753-1.939c1.606-0.402 2.873-1.648 3.3-3.246 0.003-0.010 0.005-0.020 0.006-0.027 0.424-1.576-0.044-3.258-1.217-4.393l-5.771-5.584 5.568-9.646 7.648 2.188c1.618 0.461 3.367 0.012 4.559-1.176 0.001-0.002 0.002-0.004 0.004-0.004 1.14-1.137 1.572-2.807 1.13-4.354l-2.222-7.773 9.646-5.568 5.556 5.744c1.149 1.188 2.858 1.662 4.454 1.236 0.009-0.002 0.018-0.004 0.026-0.006 1.579-0.42 2.806-1.668 3.203-3.254l1.95-7.791h11.139l1.939 7.754c0.402 1.605 1.646 2.873 3.247 3.299 0.007 0.004 0.016 0.006 0.024 0.008 1.576 0.422 3.258-0.045 4.393-1.219l5.583-5.771 9.646 5.568-2.186 7.65c-0.462 1.617-0.011 3.367 1.177 4.557 0.001 0.002 0.002 0.002 0.003 0.004 1.138 1.141 2.806 1.572 4.354 1.131l7.77-2.223 5.57 9.646-5.744 5.557c-1.187 1.15-1.662 2.857-1.236 4.455 0.002 0.008 0.006 0.016 0.007 0.025 0.421 1.58 1.668 2.805 3.254 3.203l7.79 1.949zM264.122 65.677c-11.089 0-20.078 8.99-20.078 20.080 0 11.088 8.989 20.078 20.078 20.078s20.078-8.99 20.078-20.078c0-11.090-8.988-20.080-20.078-20.080z" />
<glyph unicode="&#xe633;" d="M720.222 396.288c-2.823 0.95-5.538 1.428-8.146 1.428-5.867 0-10.745-1.813-14.662-5.429l-131.311-114.86v47.142c0 22.668-9.178 42.047-27.533 58.144-18.359 16.093-40.455 24.141-66.308 24.141h-229.387c-25.846 0-47.949-8.048-66.308-24.141-18.351-16.096-27.529-35.476-27.529-58.144v-201.142c0-22.665 9.178-42.043 27.529-58.137 18.358-16.096 40.462-24.144 66.308-24.144h229.387c25.853 0 47.949 8.048 66.308 24.144 18.351 16.093 27.533 35.472 27.533 58.137v47.43l131.311-115.144c3.913-3.615 8.795-5.428 14.662-5.428 2.609 0 5.327 0.477 8.146 1.428 8.476 3.237 12.709 8.855 12.709 16.858v310.858c0 8.002-4.233 13.62-12.709 16.861zM36.822 330.959h158.685v-84.165h-158.685v84.165zM36.822 195.068h158.685v-83.288h-158.685v83.288z" horiz-adv-x="758" />
<glyph unicode="&#xe634;" d="M74.989 405.031c99.978 99.958 262.104 99.958 362.063 0 99.939-99.998 99.939-262.125 0-362.043-99.958-99.998-262.104-99.998-362.063 0-99.978 99.939-99.978 262.046 0 362.043zM133.238 63.272c88.793-67.84 215.749-50.846 283.51 37.888 55.394 72.546 55.394 173.135 0 245.642l-283.51-283.53zM378.762 384.788c-88.733 67.8-215.69 50.806-283.53-37.987-55.375-72.527-55.375-173.115 0-245.661l283.53 283.648zM370.747 187.786l-15.163 14.671c49.644 48.029 49.644 126.11-0.019 174.12l15.183 14.69c58.171-56.084 58.171-147.417 0-203.481zM329.236 227.88l15.222-14.73c43.618 42.142 43.618 110.632 0 152.714l-15.222-14.671c35.23-34.009 35.23-89.344 0-123.313zM317.341 239.399c28.613 27.629 28.613 72.625 0 100.293l-15.242-14.69c20.264-19.555 20.264-51.377 0-70.892l15.242-14.71zM151.119 376.596l-15.498 14.69c-59.096-56.084-59.096-147.417 0-203.481l15.478 14.671c-50.59 47.971-50.57 126.11 0.019 174.12zM162.383 213.149l15.478 14.73c-35.8 33.969-35.8 89.304 0 123.313l-15.478 14.671c-44.367-42.083-44.367-110.572 0-152.714zM189.992 239.399l15.458 14.71c-20.539 19.535-20.539 51.338 0.019 70.893l-15.478 14.69c-29.105-27.688-29.105-72.664 0-100.293zM321.497 97.772h-39.621l-23.749 171.421c11.067 1.398 19.673 10.752 19.673 22.173 0 12.426-10.122 22.489-22.567 22.489s-22.508-10.063-22.508-22.489c0-11.421 8.566-20.775 19.653-22.173l-23.749-171.421h-39.641c-9.354 0-16.935-7.64-16.935-16.896 0-9.373 7.601-16.916 16.935-16.916h132.589c9.315 0 16.896 7.582 16.896 16.916 0 9.255-7.582 16.896-16.975 16.896z" />
<glyph unicode="&#xe635;" d="M74.989 405.031c99.978 99.958 262.104 99.958 362.063 0 99.939-99.998 99.939-262.125 0-362.043-99.958-99.998-262.104-99.998-362.063 0-99.978 99.939-99.978 262.046 0 362.043zM133.238 63.272c88.793-67.84 215.749-50.846 283.51 37.888 55.394 72.546 55.394 173.135 0 245.642l-283.51-283.53zM378.762 384.788c-88.733 67.8-215.69 50.806-283.53-37.987-55.375-72.527-55.375-173.115 0-245.661l283.53 283.648zM370.747 187.786l-15.163 14.671c49.644 48.029 49.644 126.11-0.019 174.12l15.183 14.69c58.171-56.084 58.171-147.417 0-203.481zM329.236 227.88l15.222-14.73c43.618 42.142 43.618 110.632 0 152.714l-15.222-14.671c35.23-34.009 35.23-89.344 0-123.313zM317.341 239.399c28.613 27.629 28.613 72.625 0 100.293l-15.242-14.69c20.264-19.555 20.264-51.377 0-70.892l15.242-14.71zM151.119 376.596l-15.498 14.69c-59.096-56.084-59.096-147.417 0-203.481l15.478 14.671c-50.59 47.971-50.57 126.11 0.019 174.12zM162.383 213.149l15.478 14.73c-35.8 33.969-35.8 89.304 0 123.313l-15.478 14.671c-44.367-42.083-44.367-110.572 0-152.714zM189.992 239.399l15.458 14.71c-20.539 19.535-20.539 51.338 0.019 70.893l-15.478 14.69c-29.105-27.688-29.105-72.664 0-100.293zM321.497 97.772h-39.621l-23.749 171.421c11.067 1.398 19.673 10.752 19.673 22.173 0 12.426-10.122 22.489-22.567 22.489s-22.508-10.063-22.508-22.489c0-11.421 8.566-20.775 19.653-22.173l-23.749-171.421h-39.641c-9.354 0-16.935-7.64-16.935-16.896 0-9.373 7.601-16.916 16.935-16.916h132.589c9.315 0 16.896 7.582 16.896 16.916 0 9.255-7.582 16.896-16.975 16.896z" />
<glyph unicode="&#xe636;" d="M367.719 248.412c-0.031 0.399-0.041 0.798-0.082 1.188-0.338 15.155-2.98 27.402-14.899 32.451-12.595 5.335-23.695 5.406-31.836 2.243-0.533-0.215-1.915-2.048-2.457-2.386s-3.399 0.614-4.475 0.358c-17.869-2.55-23.767-19.385-22.466-32.512 4.27-7.454 5.611-16.855 6.021-26.573 6.656-11.623 18.084-20.531 31.714-20.531 18.227 0 32.645 15.38 37.151 32.123 1.71 0.195 3.134 1.495 3.277 3.277l0.563 6.615c0.144 1.72-0.942 3.205-2.509 3.748zM329.226 207.769c-18.811 0-32.86 19.917-32.86 37.734 0 0.839 0.062 1.659 0.123 2.478 7.834 2.867 22.887 8.857 24.525 12.012 6.841-7.107 31.017-11.1 41.636-12.442 0.051-0.676 0.113-1.362 0.113-2.048-0.021-17.449-14.663-37.735-33.536-37.735zM125.604 244.808l0.563-6.615c0.164-1.863 1.7-3.215 3.523-3.308 4.393-16.784 18.576-32.236 36.547-32.236 14.101 0 25.856 9.236 32.573 21.145-0.143 8.325 2.048 16.875 6.799 23.952-0.297 0.215-0.512 0.532-0.87 0.655-0.030 0.399-0.041 0.798-0.082 1.188-0.338 15.155-2.98 27.402-14.899 32.451-12.595 5.335-23.696 5.406-31.836 2.243-0.532-0.215-1.915-2.048-2.458-2.386s-3.399 0.615-4.475 0.359c-17.869-2.55-23.767-19.394-22.466-32.522-0.041-0.369-0.061-0.738-0.092-1.106-1.751-0.42-2.99-1.997-2.826-3.82zM133.488 247.982c7.833 2.867 22.887 8.857 24.525 12.012 6.84-7.107 31.017-11.1 41.636-12.442 0.051-0.676 0.113-1.362 0.113-2.048 0-17.449-14.643-37.735-33.516-37.735-18.811 0-32.86 19.917-32.86 37.734-0.020 0.839 0.041 1.659 0.102 2.478zM221.655 364.175c2.673-10.209 11.294-19.609 22.231-19.609 11.090 0 19.845 9.359 22.6 19.538 1.045 0.123 1.904 0.911 1.997 1.997l0.338 4.024c0.092 1.055-0.574 1.956-1.515 2.284-0.021 0.236-0.021 0.481-0.051 0.717-0.205 9.216-1.813 16.661-9.063 19.743-7.67 3.246-14.418 3.297-19.374 1.362-0.327-0.133-1.167-1.25-1.495-1.454s-2.069 0.368-2.724 0.215c-10.864-1.546-14.448-11.786-13.66-19.784-0.030-0.215-0.041-0.451-0.061-0.676-1.054-0.256-1.802-1.219-1.71-2.325l0.348-4.024c0.092-1.136 1.034-1.956 2.14-2.007zM223.97 372.142c4.762 1.741 13.916 5.386 14.919 7.311 4.157-4.321 18.862-6.758 25.324-7.567 0.021-0.42 0.062-0.829 0.062-1.249 0-10.608-8.909-22.948-20.388-22.948-11.448 0-19.988 12.114-19.988 22.948 0 0.502 0.030 1.003 0.071 1.505zM171.97 364.913c-15.094-2.151-20.071-16.374-18.975-27.474-0.030-0.307-0.051-0.625-0.082-0.932-1.464-0.358-2.509-1.69-2.365-3.226l0.482-5.591c0.133-1.577 1.434-2.714 2.97-2.786 3.717-14.172 15.688-27.228 30.874-27.228 15.391 0 27.566 12.994 31.375 27.126 1.444 0.164 2.642 1.27 2.775 2.775l0.471 5.581c0.123 1.464-0.798 2.713-2.109 3.174-0.030 0.327-0.030 0.666-0.071 1.004-0.286 12.8-2.519 23.142-12.585 27.412-10.639 4.505-20.019 4.567-26.89 1.894-0.451-0.185-1.618-1.731-2.078-2.017-0.461-0.297-2.867 0.502-3.789 0.286zM177.92 346.102c5.775-6 26.194-9.38 35.164-10.506 0.041-0.573 0.092-1.147 0.092-1.731 0-14.736-12.37-31.867-28.314-31.867-15.893 0-27.75 16.824-27.75 31.867 0 0.707 0.051 1.403 0.102 2.089 6.615 2.416 19.323 7.486 20.706 10.148zM272.272 324.894c3.717-14.172 15.688-27.228 30.873-27.228 15.39 0 27.566 12.994 31.375 27.126 0.993 0.112 1.721 0.768 2.212 1.597l0.758 0.082c0.174 0.020 0.481 0.133 0.512 0.44l0.471 5.57c0.031 0.379-0.358 0.522-0.399 0.533l-0.317 0.113c0.123 1.464-0.798 2.714-2.11 3.175-0.031 0.327-0.031 0.665-0.072 1.003-0.286 12.8-2.519 23.142-12.585 27.412-10.639 4.506-20.019 4.567-26.89 1.894-0.45-0.184-1.618-1.731-2.079-2.017-0.45-0.276-2.867 0.512-3.779 0.297-15.094-2.151-20.070-16.374-18.974-27.474-0.031-0.307-0.051-0.625-0.082-0.932-1.464-0.358-2.509-1.69-2.365-3.226l0.481-5.591c0.144-1.557 1.433-2.703 2.969-2.775zM275.486 335.954c6.615 2.416 19.323 7.486 20.706 10.148 5.776-6 26.194-9.38 35.164-10.506 0.041-0.573 0.092-1.147 0.092-1.731 0-14.736-12.37-31.867-28.313-31.867-15.892 0-27.75 16.824-27.75 31.867 0.010 0.707 0.051 1.403 0.103 2.089zM218.317 322.745c-1.772-5.745-5.018-11.377-9.287-16.098l34.765-0.021v0.062l35.512 0.020c-4.178 4.7-7.342 10.322-9.083 16.046-1.915 0.778-3.277 2.55-3.461 4.7l-0.481 5.591c-0.185 2.058 0.778 3.973 2.416 5.1-0.174 1.966-0.092 3.994 0.113 6.021-2.068 2.13-4.485 3.635-7.404 4.055-0.574 0.092-1.137-0.041-1.505-0.195l-9.155-12.38-6.953 5.54-0.041-0.031v-0.030l-0.010 0.010-6.942-5.54-9.155 12.38c-0.369 0.143-0.932 0.276-1.495 0.184-2.621-0.368-4.823-1.649-6.758-3.43 0.246-2.284 0.41-4.588 0.471-6.871 1.495-1.147 2.345-2.99 2.181-4.925l-0.471-5.571c-0.185-2.078-1.444-3.789-3.256-4.618zM365.671 230.256c-2.683-6.85-7.117-13.251-12.759-17.982 5.735 4.793 10.148 11.213 12.759 17.982zM153.876 284.58c0.195-0.031 0.379-0.072 0.553-0.103 0.071 0.082 0.143 0.164 0.226 0.256 0.911 1.003 1.506 1.628 2.314 1.945 4.608 1.792 9.82 2.478 15.36 2.171l-10.014 13.548c-0.512 0.205-1.29 0.379-2.078 0.256-9.39-1.321-15.309-10.424-19.067-21.002 2.775 1.454 5.827 2.631 9.441 3.154l0.829 0.071c0.676-0.010 1.587-0.154 2.437-0.297zM197.837 213.678l0.696-8.141c0.195-2.294 2.089-3.963 4.332-4.065 5.406-20.654 22.856-39.68 44.974-39.68 22.436 0 40.172 18.934 45.711 39.526 2.11 0.246 3.85 1.853 4.045 4.045l0.697 8.13c0.185 2.12-1.157 3.952-3.082 4.608-0.041 0.481-0.051 0.983-0.103 1.464-0.409 18.647-3.656 33.721-18.34 39.936-15.503 6.564-29.163 6.656-39.178 2.765-0.655-0.256-2.355-2.519-3.021-2.939-0.666-0.409-4.178 0.748-5.509 0.43-21.986-3.133-29.245-23.859-27.648-40.018-0.041-0.45-0.082-0.901-0.113-1.362-2.14-0.512-3.666-2.447-3.461-4.7zM207.544 217.59c9.625 3.522 28.16 10.895 30.167 14.776 8.428-8.745 38.175-13.66 51.231-15.309 0.062-0.839 0.133-1.68 0.133-2.519 0-21.474-18.022-46.438-41.246-46.438-23.153 0-40.438 24.514-40.438 46.438 0 1.034 0.082 2.038 0.154 3.051zM194.396 285.286l-9.646 7.69-0.061-0.051v-0.051l-0.010 0.010-6.185-4.925c4.014-0.748 8.1-1.802 12.247-3.564 13.762-5.827 16.077-20.459 16.435-34.15 4.874 6.082 11.858 10.68 21.504 12.063l0.932 0.082c0.809 0 1.894-0.174 2.908-0.358 0.185-0.031 0.348-0.061 0.522-0.092-2.509 16.231-8.694 38.666-23.869 40.807-0.798 0.123-1.577-0.051-2.089-0.266l-12.688-17.193zM327.465 302.745c-0.798 0.123-1.577-0.051-2.089-0.266l-12.708-17.203-9.646 7.69-0.062-0.051v-0.051l-0.010 0.010-9.646-7.69-12.718 17.203c-0.512 0.205-1.29 0.379-2.079 0.256-13.527-1.904-19.927-19.958-22.928-35.358 7.086-0.43 14.592-2.222 22.18-5.427 4.741-2.007 8.325-4.854 11.090-8.274-0.092 13.722 7.209 28.693 24.75 31.202l0.829 0.071c0.676 0 1.587-0.143 2.447-0.297 0.195-0.031 0.379-0.072 0.553-0.103 0.072 0.082 0.144 0.164 0.226 0.256 0.911 1.003 1.505 1.628 2.314 1.945 6.994 2.724 15.39 2.969 24.218 0.85-3.769 7.966-9.113 14.162-16.722 15.237zM247.644 85.166l72.858 0.051c0 0-2.222 79.053-37.223 83.978-1.157 0.185-2.294-0.082-3.031-0.379l-18.524-25.058-14.060 11.213-0.082-0.072v-0.072l-0.020 0.021-14.059-11.213-18.524 25.067c-0.738 0.297-1.874 0.553-3.031 0.379-35-4.925-37.222-83.978-37.222-83.978l72.909-0.041v0.103zM329.063 140.37l59.207 0.041c0 0-1.802 64.236-30.249 68.25-0.942 0.144-1.863-0.062-2.468-0.307l-15.053-20.368-11.418 9.113-0.072-0.062v-0.062l-0.010 0.021-11.418-9.113-15.053 20.368c-0.512 0.205-1.31 0.297-2.099 0.256l-0.286-3.358c-0.226-2.745-2.007-4.997-4.526-5.939-3.594-12.063-11.591-23.952-22.498-31.611-0.379-1.863-0.707-3.687-1.003-5.478l6.502 8.796 0.666 0.276c0.727 0.297 2.488 0.839 4.382 0.533 14.582-2.058 23.726-15.647 29.522-31.447l15.872-0.010v0.103zM106.823 140.308l59.249-0.031v0.103l16.046 0.010c5.806 15.708 14.94 29.184 29.471 31.222 1.72 0.246 3.605-0.236 4.332-0.533l0.676-0.266 6.369-8.612c-0.338 2.058-0.717 4.158-1.167 6.318-10.127 7.68-17.582 19.108-20.992 30.75-2.662 0.85-4.588 3.185-4.833 6.062l-0.266 3.144c-0.236 0.041-0.43 0.154-0.676 0.195-0.942 0.144-1.863-0.062-2.468-0.307l-15.053-20.368-11.417 9.113-0.071-0.062v-0.062l-0.010 0.021-11.417-9.113-15.053 20.368c-0.604 0.236-1.526 0.45-2.468 0.297-28.447-4.004-30.249-68.25-30.249-68.25zM410.327 403.108l26.44 39.916-96.983-12.257 29.901-89.026 23.409 35.349c37.704-36.106 61.307-86.784 61.307-142.992 0-109.404-88.996-198.4-198.4-198.4s-198.4 88.996-198.4 198.4c0 81.152 49.019 150.979 118.958 181.678l-23.112 23.112c-74.967-37.704-126.567-115.313-126.567-204.8 0-126.331 102.789-229.12 229.12-229.12s229.12 102.789 229.12 229.12c0 66.908-28.908 127.099-74.793 169.022z" />
<glyph unicode="&#xe637;" d="M456.448 480h-400.963c-30.506 0-55.485-25.002-55.485-55.529v-400.941c0-30.528 24.98-55.507 55.485-55.507h400.941c30.528 0 55.485 25.002 55.485 55.507v400.941c0.045 30.528-24.935 55.529-55.463 55.529zM442.009 434.119c14.462 0 26.205-11.721 26.205-26.205s-11.721-26.205-26.205-26.205-26.205 11.721-26.205 26.205 11.743 26.205 26.205 26.205zM360.252 434.142c14.462 0 26.228-11.721 26.228-26.228s-11.743-26.227-26.228-26.227c-14.484 0-26.228 11.721-26.228 26.227s11.743 26.228 26.228 26.228zM469.952 15.642h-427.904v328.454h427.904v-328.454zM132.317 152.482h81.846v-81.824h-81.846v81.823zM301.113 152.482h81.868v-81.824h-81.868v81.823zM132.317 285.49h81.846v-81.823h-81.846v81.823zM301.113 285.49h81.868v-81.823h-81.868v81.823z" />
<glyph unicode="&#xe638;" d="M7.851 329.711c0 37.274 30.208 67.447 67.55 67.447 37.206 0 67.345-30.174 67.345-67.447s-30.139-67.413-67.345-67.413c-37.342 0-67.55 30.139-67.55 67.413zM306.517 266.599c-10.854 6.519-24.849 3.141-31.437-7.646l-45.022-73.83-63.454 35.464c-28.536 17.578-42.462 25.907-84.822 25.907h-12.903c-82.193-9.591-67.925-75.434-67.925-75.434l9.967-203.059 144.657 1.604-5.701 201.455 77.142-36.591c3.55-2.014 7.339-2.901 11.127-2.901 7.749 0 15.257 3.891 19.593 10.957l56.457 92.638c6.519 10.786 3.14 24.849-7.68 31.437zM123.802 273.596c-5.017-4.301-10.479-7.953-16.453-10.855v-10.649c5.974-0.683 11.434-1.673 16.453-3.038v24.542zM501.385 480h-394.035v-83.32c5.974-2.867 11.434-6.553 16.453-10.854v77.755h361.199v-247.091h-173.943l-10.001-16.418h200.328v279.928zM230.946 200.072l10.070 16.418h-52.6l29.389-16.418h13.142zM370.142 366.609l-7.919 4.54-55.159-96.154 7.987-4.574 55.091 96.188z" horiz-adv-x="502" />
<glyph unicode="&#xe639;" d="M662.928 477.328c-68.976-19.769-132.721-49.864-190.172-88.587v26.54c0 14.085-11.39 25.521-25.52 25.521h-421.76c-14.063 0-25.476-11.436-25.476-25.521v-421.783c0-14.063 11.413-25.498 25.476-25.498h421.76c14.13 0 25.52 11.435 25.52 25.498v281.226c51.924 41.712 112.205 73.415 180.57 92.957 54.688 15.647 84.986 131.227 9.601 109.647zM51.019 19.019v370.741h370.764v-39.153c-52.287-42.957-98.075-93.817-136.345-150.973-37.432 38.27-80.978 70.063-115.556 112.296-36.458 44.588-120.403-50.724-81.975-97.69 44.678-54.551 108.287-88.768 145.425-150.022 23.664-39.108 77.831-4.597 92.481 24.796 25.951 52.151 58.016 98.731 95.969 138.745v-208.74h-370.764z" horiz-adv-x="708" />
<glyph unicode="&#xe63a;" d="M256 384c-79.531 0-144-64.469-144-144 0-56.406 32.75-104.75 80-128.375v-79.625c0-17.688 14.313-32 32-32 0-17.688 14.313-32 32-32s32 14.313 32 32c17.688 0 32 14.313 32 32v79.625c47.25 23.625 80 71.969 80 128.375 0 79.531-64.469 144-144 144zM288 32h-64v32h64v-32zM305.688 140.25l-17.688-8.844v-35.406h-64v35.406l-17.688 8.844c-38.437 19.219-62.312 57.437-62.312 99.75 0 61.75 50.25 112 112 112s112-50.25 112-112c0-42.313-23.875-80.531-62.312-99.75zM240 416v48c0 8.844 7.156 16 16 16s16-7.156 16-16v-48c0-8.813-7.156-16-16-16s-16 7.187-16 16zM394.563 320c-4.438 7.625-1.813 17.438 5.844 21.844l41.593 24.031c7.656 4.375 17.469 1.813 21.844-5.875 4.438-7.656 1.813-17.438-5.844-21.875l-41.594-24c-2.531-1.438-5.281-2.125-8-2.125-5.5 0-10.906 2.844-13.843 8zM330.156 400.406l24 41.594c4.406 7.625 14.219 10.188 21.844 5.844 7.656-4.406 10.281-14.219 5.844-21.844l-24-41.594c-2.938-5.125-8.344-8-13.844-8-2.719 0-5.469 0.688-8 2.156-7.656 4.407-10.281 14.188-5.844 21.844zM117.438 160c4.438-7.656 1.813-17.438-5.844-21.844l-41.594-24c-2.5-1.469-5.25-2.156-7.969-2.156-5.531 0-10.906 2.875-13.875 8-4.406 7.656-1.781 17.438 5.844 21.844l41.594 24c7.594 4.468 17.406 1.812 21.844-5.844zM80 224h-48c-8.844 0-16 7.156-16 16s7.156 16 16 16h48c8.813 0 16-7.156 16-16s-7.187-16-16-16zM48.156 360c4.406 7.656 14.219 10.313 21.844 5.875l41.625-24.063c7.688-4.406 10.313-14.188 5.875-21.844-2.969-5.125-8.344-8-13.875-8-2.719 0-5.469 0.688-8 2.156l-41.625 24c-7.625 4.438-10.25 14.22-5.844 21.876zM130.125 426c-4.406 7.625-1.781 17.438 5.875 21.844 7.594 4.438 17.406 1.781 21.875-5.844l23.938-41.5c4.438-7.688 1.813-17.438-5.875-21.875-2.5-1.438-5.25-2.125-7.969-2.125-5.531 0-10.906 2.875-13.875 8l-23.969 41.5zM463.844 120c-2.938-5.125-8.344-8-13.844-8-2.719 0-5.469 0.688-8 2.156l-41.625 24.031c-7.656 4.406-10.281 14.188-5.844 21.844 4.406 7.625 14.219 10.25 21.844 5.844l41.625-24.031c7.656-4.407 10.281-14.188 5.844-21.844zM496 240c0-8.844-7.156-16-16-16h-48c-8.844 0-16 7.156-16 16s7.156 16 16 16h48c8.844 0 16-7.156 16-16zM192 160l64 80h64l-128-80zM320 320l-64-80h-64l128 80z" />
<glyph unicode="&#xe63b;" d="M416 448h-320l-96-96v-336c0-8.837 7.163-16 16-16h480c8.836 0 16 7.163 16 16v336l-96 96zM256 64l-160 128h96v96h128v-96h96l-160-128zM77.255 384l32 32h293.489l32-32h-357.489z" />
<glyph unicode="&#xe63c;" d="M416 448h-320l-96-96v-336c0-8.837 7.163-16 16-16h480c8.836 0 16 7.163 16 16v336l-96 96zM320 160v-96h-128v96h-96l160 128 160-128h-96zM77.255 384l32 32h293.488l32-32h-357.488z" />
<glyph unicode="&#xe63d;" d="M256 192l128 128h-96v128h-64v-128h-96zM372.363 244.364l-35.87-35.871 130.040-48.493-210.533-78.509-210.533 78.509 130.040 48.493-35.871 35.871-139.636-52.364v-128l256-96 256 96v128z" />
<glyph unicode="&#xe63e;" d="M224 192h64v128h96l-128 128-128-128h96zM320 264v-49.356l146.533-54.644-210.533-78.509-210.533 78.509 146.533 54.644v49.356l-192-72v-128l256-96 256 96v128z" />
<glyph unicode="&#xe63f;" d="M192 224h-160v64h160v64l96-96-96-96zM512 480v-416l-192-96v96h-192v128h32v-96h160v288l128 64h-288v-128h-32v160z" />
<glyph unicode="&#xe640;" d="M384 160v64h-160v64h160v64l96-96zM352 192v-128h-160v-96l-192 96v416h352v-160h-32v128h-256l128-64v-288h128v96z" />
<glyph unicode="&#xe641;" d="M421.006 185.26c-6.824 6.723-21.957 10.283-44.986 10.586-15.589 0.172-34.351-1.201-54.085-3.964-8.837 5.099-17.946 10.647-25.094 17.329-19.231 17.958-35.284 42.886-45.288 70.297 0.652 2.56 1.207 4.81 1.724 7.106 0 0 10.833 61.53 7.965 82.333-0.395 2.853-0.637 3.681-1.404 5.898l-0.941 2.417c-2.948 6.796-8.724 13.997-17.783 13.604l-5.458 0.172c-10.1 0-18.332-5.166-20.493-12.887-6.569-24.217 0.209-60.446 12.491-107.369l-3.144-7.643c-8.794-21.438-19.815-43.030-29.539-62.079l-1.264-2.476c-10.23-20.019-19.512-37.013-27.927-51.411l-8.688-4.594c-0.632-0.334-15.522-8.209-19.014-10.322-29.628-17.691-49.261-37.77-52.518-53.708-1.036-5.085-0.265-11.593 5.007-14.607l8.403-4.229c3.645-1.826 7.489-2.751 11.427-2.751 21.102 0 45.6 26.286 79.348 85.183 38.965 12.684 83.327 23.228 122.207 29.045 29.629-16.684 66.071-28.273 89.071-28.273 4.084 0 7.606 0.389 10.466 1.148 4.411 1.168 8.129 3.683 10.396 7.096 4.463 6.716 5.367 15.966 4.156 25.438-0.361 2.812-2.606 6.288-5.035 8.661zM105.823 72.976c3.848 10.521 19.080 31.322 41.602 49.778 1.416 1.148 4.904 4.416 8.097 7.451-23.551-37.562-39.323-52.533-49.699-57.229zM239.217 380.157c6.783 0 10.642-17.097 10.962-33.127s-3.429-27.28-8.079-35.604c-3.851 12.324-5.713 31.75-5.713 44.452 0 0-0.283 24.279 2.83 24.279zM199.426 161.253c4.725 8.458 9.641 17.378 14.665 26.839 12.246 23.158 19.979 41.278 25.739 56.173 11.455-20.842 25.722-38.56 42.493-52.756 2.092-1.771 4.309-3.551 6.637-5.325-34.105-6.748-63.582-14.955-89.534-24.931zM414.452 163.174c-2.077-1.299-8.027-2.050-11.854-2.050-12.353 0-27.636 5.647-49.063 14.833 8.234 0.609 15.781 0.919 22.55 0.919 12.391 0 16.060 0.054 28.175-3.036s12.269-9.367 10.192-10.666zM451.716 380.285l-71.432 71.431c-15.556 15.556-46.284 28.284-68.284 28.284h-240c-22 0-40-18-40-40v-432c0-22 18-40 40-40h368c22 0 40 18 40 40v304c0 22-12.728 52.729-28.284 68.285zM429.089 357.657c1.565-1.565 3.125-3.487 4.64-5.657h-81.729v81.728c2.17-1.515 4.092-3.075 5.657-4.64l71.432-71.431zM448 8c0-4.336-3.664-8-8-8h-368c-4.336 0-8 3.664-8 8v432c0 4.336 3.664 8 8 8h240c2.416 0 5.127-0.305 8-0.852v-127.148h127.148c0.547-2.873 0.852-5.583 0.852-8v-304z" />
<glyph unicode="&#xe642;" d="M319.889 242.054h22.106l-25.506-113.089-33.163 159.005h-53.275l-38.557-159.005-28.908 159.005h-55.697l56.546-255.941h54.419l38.147 151.354 34.128-151.354h50.168l64.815 255.941h-85.223zM451.716 380.285l-71.432 71.431c-15.556 15.556-46.284 28.284-68.284 28.284h-240c-22 0-40-18-40-40v-432c0-22 18-40 40-40h368c22 0 40 18 40 40v304c0 22-12.728 52.729-28.284 68.285zM429.089 357.657c1.565-1.565 3.125-3.487 4.64-5.657h-81.729v81.728c2.17-1.515 4.092-3.075 5.657-4.64l71.432-71.431zM448 8c0-4.336-3.664-8-8-8h-368c-4.336 0-8 3.664-8 8v432c0 4.336 3.664 8 8 8h240c2.416 0 5.127-0.305 8-0.852v-127.148h127.148c0.547-2.873 0.852-5.583 0.852-8v-304z" />
<glyph unicode="&#xe643;" d="M30.269 480l41.072-460.815 184.378-51.185 184.862 51.262 41.15 460.738h-451.462zM392.315 329.286h-216.27l5.151-57.875h205.984l-15.521-173.505-115.922-32.127-115.786 32.127-7.915 88.756h56.747l4.024-45.116 62.931-16.958 0.139 0.039 62.967 16.996 6.535 73.275h-195.87l-15.247 170.9h283.107l-5.054-56.512z" />
<glyph unicode="&#xe644;" d="M30.269 480l41.072-460.815 184.378-51.185 184.862 51.262 41.15 460.738h-451.462zM405.381 48.588l-148.613-41.188v-0.233l-0.388 0.117-0.391-0.117v0.233l-148.611 41.188-35.121 393.743h368.248l-35.124-393.743zM325.377 214.898l-6.535-73.276-63.105-17.035-62.931 16.958-4.025 45.117h-56.745l7.915-88.756 116.038-32.088 115.671 32.088 15.52 173.506h-205.983l-5.151 57.874h216.267l5.056 56.513h-283.109l15.249-170.901z" />
<glyph unicode="&#xf03d;" d="M0 118.857v201.143q0 34 24.143 58.143t58.143 24.143h201.143q34 0 58.143-24.143t24.143-58.143v-47.143l115.143 114.857q5.143 5.428 12.857 5.428 3.428 0 7.143-1.428 11.143-4.857 11.143-16.857v-310.857q0-12-11.143-16.857-3.714-1.428-7.143-1.428-7.714 0-12.857 5.428l-115.143 115.143v-47.428q0-34-24.143-58.143t-58.143-24.143h-201.143q-34 0-58.143 24.143t-24.143 58.143z" />
<glyph unicode="&#xf044;" d="M0 118.857v237.714q0 34 24.143 58.143t58.143 24.143h237.714q18 0 33.428-7.143 4.286-2 5.143-6.572 0.857-4.857-2.572-8.285l-14-14q-4-4-9.143-2.286-6.572 1.714-12.857 1.714h-237.714q-18.857 0-32.285-13.428t-13.428-32.286v-237.714q0-18.857 13.428-32.286t32.285-13.428h237.714q18.857 0 32.286 13.428t13.428 32.286v36q0 3.714 2.572 6.286l18.286 18.286q4.286 4.286 10 2t5.714-8.286v-54.286q0-34-24.143-58.143t-58.143-24.143h-237.714q-34 0-58.143 24.143t-24.143 58.143zM182.857 109.714v82.286l192 192 82.286-82.286-192-192h-82.286zM210.286 164.572h27.428v-27.428h16l33.143 33.143-43.428 43.428-33.143-33.143v-16zM269.714 233.143q4.572-4.572 9.428 0.286l100 100q4.857 4.857 0.286 9.428t-9.428-0.286l-100-100q-4.857-4.857-0.286-9.428zM393.143 402.286l26.286 26.286q8 8 19.428 8t19.428-8l43.428-43.428q8-8 8-19.429t-8-19.428l-26.286-26.285z" />
<glyph unicode="&#xf1c1;" d="M0-9.143v457.143q0 11.428 8 19.428t19.428 8h256q11.428 0 25.143-5.714t21.714-13.714l89.143-89.143q8-8 13.714-21.714t5.714-25.143v-329.143q0-11.428-8-19.428t-19.428-8h-384q-11.428 0-19.428 8t-8 19.428zM36.572 0h365.714v292.572h-118.857q-11.428 0-19.428 8t-8 19.428v118.857h-219.429v-438.857zM73.428 53.714q2.572 11.428 16 26.143t37.715 27.572q4 2.572 6.571-1.714 0.571-0.572 0.571-1.143 14.857 24.286 30.571 56.286 19.428 38.857 29.714 74.857-6.857 23.429-8.714 45.572t1.857 36.428q3.143 11.428 12 11.428h6.286q6.571 0 10-4.286 5.143-6 2.571-19.428-0.571-1.714-1.143-2.286 0.286-0.857 0.286-2.286v-8.572q-0.571-35.143-4-54.857 15.714-46.857 41.715-68 9.428-7.428 24-16 16.857 2 33.428 2 42 0 50.572-14 4.572-6.286 0.572-14.857 0-0.286-0.286-0.572l-0.572-0.572v-0.286q-1.714-10.857-20.286-10.857-13.714 0-32.857 5.714t-37.143 15.143q-63.143-6.857-112-23.714-43.715-74.857-69.143-74.857-4.285 0-8 2l-6.857 3.428q-0.285 0.286-1.715 1.428-2.857 2.857-1.715 10.286zM90.857 52q14.857 6.857 39.143 45.143-14.572-11.428-25-24t-14.143-21.143zM169.143 126q38.571 15.428 81.143 23.143-0.571 0.286-3.714 2.714t-4.572 3.857q-21.714 19.143-36.286 50.286-7.714-24.572-23.714-56.286-8.572-16-12.857-23.714zM204 277.143q0.286 2 2 12.572 0 0.857 2 12.286 0.286 1.143 1.143 2.286-0.286 0.286-0.286 0.571t-0.143 0.429-0.143 0.428q-0.286 6.286-3.714 10.286 0-0.286-0.286-0.571v-0.572q-4.286-12-0.571-37.714zM292.572 329.143h107.428q-2.857 8.286-6.286 11.714l-89.428 89.428q-3.428 3.428-11.714 6.286v-107.428zM313.714 137.429q21.714-8 35.428-8 4 0 5.143 0.286 0 0.286-0.572 0.857-6.857 6.857-40 6.857z" />
<glyph unicode="&#xf1c2;" d="M0-9.143v457.143q0 11.428 8 19.428t19.428 8h256q11.428 0 25.143-5.714t21.714-13.714l89.143-89.143q8-8 13.714-21.714t5.714-25.143v-329.143q0-11.428-8-19.428t-19.428-8h-384q-11.428 0-19.428 8t-8 19.428zM36.572 0h365.714v292.572h-118.857q-11.428 0-19.428 8t-8 19.428v118.857h-219.429v-438.857zM66.572 225.429h20l46.857-188.857h45.428l36.572 138.572q2 5.714 2.857 13.143 0.571 4.572 0.571 6.857h1.143l0.857-6.857q0.286-0.857 1-5.714t1.571-7.428l36.571-138.571h45.428l46.857 188.857h20v30.572h-85.714v-30.572h25.714l-28.286-125.143q-1.428-5.714-2-13.143l-0.572-6h-1.143l-0.857 6q-0.286 1.428-1.143 6t-1.428 7.143l-41.143 155.714h-32.571l-41.143-155.714q-0.571-2.572-1.286-7t-1-6.143l-1.143-6h-1.143l-0.571 6q-0.571 7.428-2 13.143l-28.285 125.143h25.715v30.572h-85.715v-30.572zM292.572 329.143h107.428q-2.857 8.286-6.286 11.714l-89.428 89.428q-3.428 3.428-11.714 6.286v-107.428z" />
</font>
</defs>
</svg>
